<?xml version="1.0" standalone="no"?>
<!DOCTYPE svg PUBLIC "-//W3C//DTD SVG 1.1//EN" "http://www.w3.org/Graphics/SVG/1.1/DTD/svg11.dtd" >
<svg xmlns="http://www.w3.org/2000/svg" xmlns:xlink="http://www.w3.org/1999/xlink" version="1.1">
<metadata>
Created by FontForge 20230101 at Sun Feb 12 21:53:21 2023
 By Andreas Krasa
(C) 2015, The Byron Font Foundry. All rights reserved.
</metadata>
<defs>
<font id="bangalowneue" horiz-adv-x="579" >
  <font-face 
    font-family="Bangalow Neue"
    font-weight="500"
    font-stretch="normal"
    units-per-em="1000"
    panose-1="0 0 0 0 0 0 0 0 0 0"
    ascent="750"
    descent="-250"
    x-height="517"
    cap-height="715"
    bbox="-202.8 -244 1045 979"
    underline-thickness="50"
    underline-position="-125"
    unicode-range="U+0020-25CA"
  />
<missing-glyph horiz-adv-x="225" 
 />
    <glyph glyph-name=".notdef" horiz-adv-x="225" 
 />
    <glyph glyph-name="Aacute" unicode="&#xc1;" horiz-adv-x="619" 
d="M18 0q-12 0 -9 13l249 693q3 9 12 9h79q10 0 13 -9l248 -693q5 -13 -9 -13h-67q-10 0 -13 9l-61 178h-300l-62 -178q-3 -9 -13 -9h-67zM186 266h248l-122 354h-4zM331 792q-6 -7 -14 -7h-52q-16 0 -7 14l105 133q4 7 13 7h70q7 0 9 -4.5t-3 -9.5z" />
    <glyph glyph-name="Abreve" unicode="&#x102;" horiz-adv-x="619" 
d="M18 0q-12 0 -9 13l249 693q3 9 12 9h79q10 0 13 -9l248 -693q5 -13 -9 -13h-67q-10 0 -13 9l-61 178h-300l-62 -178q-3 -9 -13 -9h-67zM186 266h248l-122 354h-4zM473 910q-8 -61 -49 -99.5t-114 -38.5t-114 38.5t-49 98.5q-1 10 10 13l44 11q10 1 13 -9q7 -40 30.5 -62
t65.5 -22t66 22t30 62q3 10 13 9l44 -11q11 -3 10 -12z" />
    <glyph glyph-name="Acircumflex" unicode="&#xc2;" horiz-adv-x="619" 
d="M18 0q-12 0 -9 13l249 693q3 9 12 9h79q10 0 13 -9l248 -693q5 -13 -9 -13h-67q-10 0 -13 9l-61 178h-300l-62 -178q-3 -9 -13 -9h-67zM186 266h248l-122 354h-4zM153 785q-8 0 -9.5 4.5t3.5 9.5l123 133q6 7 14 7h52q7 0 14 -7l123 -133q5 -5 3.5 -9.5t-9.5 -4.5h-59
q-8 0 -14 7l-84 86l-84 -86q-6 -7 -14 -7h-59z" />
    <glyph glyph-name="Adieresis" unicode="&#xc4;" horiz-adv-x="619" 
d="M18 0q-12 0 -9 13l249 693q3 9 12 9h79q10 0 13 -9l248 -693q5 -13 -9 -13h-67q-10 0 -13 9l-61 178h-300l-62 -178q-3 -9 -13 -9h-67zM186 266h248l-122 354h-4zM257 847q0 -22 -14 -35.5t-35 -13.5q-22 0 -35.5 13.5t-13.5 35.5t13.5 36t35.5 14q21 0 35 -14t14 -36z
M461 847q0 -22 -14 -35.5t-36 -13.5t-35.5 13.5t-13.5 35.5t13.5 36t35.5 14t36 -14t14 -36z" />
    <glyph glyph-name="Agrave" unicode="&#xc0;" horiz-adv-x="619" 
d="M18 0q-12 0 -9 13l249 693q3 9 12 9h79q10 0 13 -9l248 -693q5 -13 -9 -13h-67q-10 0 -13 9l-61 178h-300l-62 -178q-3 -9 -13 -9h-67zM186 266h248l-122 354h-4zM279.007 792q6 -7 13.999 -7h51.9971q15.999 0 6.99902 14l-104.993 133q-4 7 -12.999 7h-69.9961
q-6.99902 0 -8.99902 -4.5t2.99902 -9.5z" />
    <glyph glyph-name="Amacron" unicode="&#x100;" horiz-adv-x="619" 
d="M18 0q-12 0 -9 13l249 693q3 9 12 9h79q10 0 13 -9l248 -693q5 -13 -9 -13h-67q-10 0 -13 9l-61 178h-300l-62 -178q-3 -9 -13 -9h-67zM186 266h248l-122 354h-4zM173 811q-11 0 -11 11v45q0 12 11 12h272q11 0 11 -12v-45q0 -11 -11 -11h-272z" />
    <glyph glyph-name="Aogonek" unicode="&#x104;" horiz-adv-x="619" 
d="M627 -183q-39 -17 -83 -17q-45 0 -70.5 22t-25.5 60q0 34 24.5 66t63.5 53h-3q-10 4 -15 17l-58 170h-300l-62 -179q-3 -9 -13 -9h-67q-12 0 -9 13l249 693q3 9 12 9h79q10 0 13 -9l248 -693q5 -12 -6 -14q-40 -19 -61.5 -45.5t-21.5 -48.5q0 -18 10 -25.5t30 -7.5
q14 0 26 1.5t24 6.5q11 3 14 -7l9 -42q1 -10 -7 -14zM186 265h248l-122 355h-4z" />
    <glyph glyph-name="Aring" unicode="&#xc5;" horiz-adv-x="619" 
d="M18 0q-12 0 -9 13l249 693q3 9 12 9h79q10 0 13 -9l248 -693q5 -13 -9 -13h-67q-10 0 -13 9l-61 178h-300l-62 -178q-3 -9 -13 -9h-67zM186 266h248l-122 354h-4zM418 874q0 -49 -30 -76.5t-77 -27.5q-48 0 -79 28t-31 76t31 76.5t79 28.5q47 0 77 -28.5t30 -76.5z
M252 874q0 -26 16 -40.5t43 -14.5q26 0 41 14.5t15 40.5t-15 41t-41 15q-27 0 -43 -15t-16 -41z" />
    <glyph glyph-name="Atilde" unicode="&#xc3;" horiz-adv-x="619" 
d="M18 0q-12 0 -9 13l249 693q3 9 12 9h79q10 0 13 -9l248 -693q5 -13 -9 -13h-67q-10 0 -13 9l-61 178h-300l-62 -178q-3 -9 -13 -9h-67zM186 266h248l-122 354h-4zM466 881q-4 -12 -12 -25t-18.5 -23.5t-24.5 -17.5t-30 -7q-18 0 -36 7.5t-35 16.5t-31.5 16.5t-29.5 7.5
q-16 0 -25 -10.5t-16 -23.5q-3 -7 -7 -7t-8 2l-33 19q-6 3 -7 6.5t1 8.5q9 24 30.5 47t53.5 23q20 0 38 -7.5t35 -17.5q15 -8 31.5 -15.5t30.5 -7.5t21.5 8.5t16.5 25.5q6 10 15 5l34 -18q5 -3 6 -6t0 -7z" />
    <glyph glyph-name="AE" unicode="&#xc6;" horiz-adv-x="865" 
d="M490 78h313q11 0 11 -11v-56q0 -11 -11 -11h-386q-12 0 -12 11v177h-220l-90 -180q-3 -8 -13 -8h-69q-6 0 -8.5 4t0.5 10l348 693q3 8 13 8h425q12 0 12 -11v-56q0 -11 -12 -11h-301v-237h280q11 0 11 -11v-56q0 -11 -11 -11h-280v-244zM221 267h184v370z" />
    <glyph glyph-name="B" unicode="B" horiz-adv-x="637" 
d="M558 527q0 -51 -23 -89t-62 -57q56 -20 85.5 -65.5t29.5 -108.5q0 -98 -64 -152.5t-182 -54.5h-241q-12 0 -12 11v693q0 11 12 11h242q108 0 161.5 -51.5t53.5 -136.5zM343 77q74 0 116.5 31.5t42.5 98.5q0 60 -37 96t-116 36h-175v-262h169zM472 527q0 51 -32.5 81
t-96.5 30h-169v-222h175q55 0 89 27t34 84z" />
    <glyph glyph-name="C" unicode="C" horiz-adv-x="587" 
d="M555 65q-48 -40 -107.5 -58t-119.5 -18q-55 0 -103 15.5t-83.5 46.5t-56 77t-20.5 108v242q0 62 20.5 108.5t56 77.5t83 46.5t101.5 15.5q57 0 111.5 -17.5t101.5 -52.5q8 -6 2 -15l-32 -47q-6 -8 -17 -2q-37 27 -80.5 40.5t-86.5 13.5q-85 0 -130 -45.5t-45 -122.5v-241
q0 -77 45.5 -122.5t130.5 -45.5q49 0 96.5 15.5t87.5 46.5q8 8 15 -3l33 -46q6 -11 -3 -17z" />
    <glyph glyph-name="Cacute" unicode="&#x106;" horiz-adv-x="587" 
d="M555 65q-48 -40 -107.5 -58t-119.5 -18q-55 0 -103 15.5t-83.5 46.5t-56 77t-20.5 108v242q0 62 20.5 108.5t56 77.5t83 46.5t101.5 15.5q57 0 111.5 -17.5t101.5 -52.5q8 -6 2 -15l-32 -47q-6 -8 -17 -2q-37 27 -80.5 40.5t-86.5 13.5q-85 0 -130 -45.5t-45 -122.5v-241
q0 -77 45.5 -122.5t130.5 -45.5q49 0 96.5 15.5t87.5 46.5q8 8 15 -3l33 -46q6 -11 -3 -17zM344 792q-6 -7 -14 -7h-52q-16 0 -7 14l105 133q4 7 13 7h70q7 0 9 -4.5t-3 -9.5z" />
    <glyph glyph-name="Ccaron" unicode="&#x10c;" horiz-adv-x="587" 
d="M555 65q-48 -40 -107.5 -58t-119.5 -18q-55 0 -103 15.5t-83.5 46.5t-56 77t-20.5 108v242q0 62 20.5 108.5t56 77.5t83 46.5t101.5 15.5q57 0 111.5 -17.5t101.5 -52.5q8 -6 2 -15l-32 -47q-6 -8 -17 -2q-37 27 -80.5 40.5t-86.5 13.5q-85 0 -130 -45.5t-45 -122.5v-241
q0 -77 45.5 -122.5t130.5 -45.5q49 0 96.5 15.5t87.5 46.5q8 8 15 -3l33 -46q6 -11 -3 -17zM225 939q8 0 14 -7l84 -86l84 86q6 7 14 7h59q8 0 9.5 -4.5t-3.5 -9.5l-123 -133q-7 -7 -14 -7h-52q-8 0 -14 7l-123 133q-5 5 -3.5 9.5t9.5 4.5h59z" />
    <glyph glyph-name="Ccedilla" unicode="&#xc7;" horiz-adv-x="587" 
d="M421 -121q0 -42 -32.5 -64t-85.5 -22q-32 0 -59 9q-9 3 -9 13v25q0 13 13 10q12 -4 23.5 -5.5t22.5 -1.5q25 0 41.5 8.5t17.5 30.5q1 17 -14 26.5t-50 10.5q-10 0 -14 8q-2 4 1 11l21 52q-50 4 -92 21.5t-73.5 48t-49 75t-17.5 101.5v242q0 62 20.5 108.5t56 77.5
t83 46.5t101.5 15.5q57 0 111.5 -17.5t101.5 -52.5q8 -6 2 -15l-32 -47q-6 -8 -17 -2q-37 27 -80.5 40.5t-86.5 13.5q-85 0 -130 -45.5t-45 -122.5v-241q0 -77 45.5 -123t130.5 -46q49 0 96.5 16t87.5 47q8 8 15 -3l33 -46q6 -11 -3 -17q-45 -37 -98 -55t-108 -21l-16 -40
q39 -2 63.5 -20.5t24.5 -49.5z" />
    <glyph glyph-name="Cdotaccent" unicode="&#x10a;" horiz-adv-x="587" 
d="M555 65q-48 -40 -107.5 -58t-119.5 -18q-55 0 -103 15.5t-83.5 46.5t-56 77t-20.5 108v242q0 62 20.5 108.5t56 77.5t83 46.5t101.5 15.5q57 0 111.5 -17.5t101.5 -52.5q8 -6 2 -15l-32 -47q-6 -8 -17 -2q-37 27 -80.5 40.5t-86.5 13.5q-85 0 -130 -45.5t-45 -122.5v-241
q0 -77 45.5 -122.5t130.5 -45.5q49 0 96.5 15.5t87.5 46.5q8 8 15 -3l33 -46q6 -11 -3 -17zM378 852q0 -23 -16 -39t-39 -16t-39 16t-16 39t16 39t39 16t39 -16t16 -39z" />
    <glyph glyph-name="D" unicode="D" horiz-adv-x="670" 
d="M101 0q-12 0 -12 11v693q0 11 12 11h244q122 0 191 -66.5t69 -190.5v-205q0 -122 -69 -187.5t-191 -65.5h-244zM175 80h169q84 0 128.5 43t44.5 130v205q0 89 -44.5 134t-128.5 45h-169v-557z" />
    <glyph glyph-name="Eth" unicode="&#xd0;" horiz-adv-x="679" 
d="M354 715q122 0 191 -66.5t69 -190.5v-205q0 -122 -69 -187.5t-191 -65.5h-244q-12 0 -12 11v330h-76q-11 0 -11 11v37q0 11 11 11h76v304q0 11 12 11h244zM353 80q84 0 128.5 43t44.5 130v205q0 89 -44.5 134t-128.5 45h-169v-237h167q11 0 11 -11v-37q0 -11 -11 -11
h-167v-261h169z" />
    <glyph glyph-name="Dcaron" unicode="&#x10e;" horiz-adv-x="670" 
d="M101 0q-12 0 -12 11v693q0 11 12 11h244q122 0 191 -66.5t69 -190.5v-205q0 -122 -69 -187.5t-191 -65.5h-244zM175 80h169q84 0 128.5 43t44.5 130v205q0 89 -44.5 134t-128.5 45h-169v-557zM232 939q8 0 14 -7l84 -86l84 86q6 7 14 7h59q8 0 9.5 -4.5t-3.5 -9.5
l-123 -133q-7 -7 -14 -7h-52q-8 0 -14 7l-123 133q-5 5 -3.5 9.5t9.5 4.5h59z" />
    <glyph glyph-name="Dcroat" unicode="&#x110;" horiz-adv-x="679" 
d="M354 715q122 0 191 -66.5t69 -190.5v-205q0 -122 -69 -187.5t-191 -65.5h-244q-12 0 -12 11v330h-76q-11 0 -11 11v37q0 11 11 11h76v304q0 11 12 11h244zM353 80q84 0 128.5 43t44.5 130v205q0 89 -44.5 134t-128.5 45h-169v-237h167q11 0 11 -11v-37q0 -11 -11 -11
h-167v-261h169z" />
    <glyph glyph-name="E" unicode="E" 
d="M175 78h344q11 0 11 -11v-56q0 -11 -11 -11h-418q-12 0 -12 11v693q0 11 12 11h404q11 0 11 -11v-56q0 -11 -11 -11h-330v-234h307q11 0 11 -12v-55q0 -12 -11 -12h-307v-246z" />
    <glyph glyph-name="Eacute" unicode="&#xc9;" 
d="M175 78h344q11 0 11 -11v-56q0 -11 -11 -11h-418q-12 0 -12 11v693q0 11 12 11h404q11 0 11 -11v-56q0 -11 -11 -11h-330v-234h307q11 0 11 -12v-55q0 -12 -11 -12h-307v-246zM315 792q-6 -7 -14 -7h-52q-16 0 -7 14l105 133q4 7 13 7h70q7 0 9 -4.5t-3 -9.5z" />
    <glyph glyph-name="Ecaron" unicode="&#x11a;" 
d="M175 78h344q11 0 11 -11v-56q0 -11 -11 -11h-418q-12 0 -12 11v693q0 11 12 11h404q11 0 11 -11v-56q0 -11 -11 -11h-330v-234h307q11 0 11 -12v-55q0 -12 -11 -12h-307v-246zM208 939q8 0 14 -7l84 -86l84 86q6 7 14 7h59q8 0 9.5 -4.5t-3.5 -9.5l-123 -133
q-7 -7 -14 -7h-52q-8 0 -14 7l-123 133q-5 5 -3.5 9.5t9.5 4.5h59z" />
    <glyph glyph-name="Ecircumflex" unicode="&#xca;" 
d="M175 78h344q11 0 11 -11v-56q0 -11 -11 -11h-418q-12 0 -12 11v693q0 11 12 11h404q11 0 11 -11v-56q0 -11 -11 -11h-330v-234h307q11 0 11 -12v-55q0 -12 -11 -12h-307v-246zM156 785q-8 0 -9.5 4.5t3.5 9.5l123 133q6 7 14 7h52q7 0 14 -7l123 -133q5 -5 3.5 -9.5
t-9.5 -4.5h-59q-8 0 -14 7l-84 86l-84 -86q-6 -7 -14 -7h-59z" />
    <glyph glyph-name="Edieresis" unicode="&#xcb;" 
d="M175 78h344q11 0 11 -11v-56q0 -11 -11 -11h-418q-12 0 -12 11v693q0 11 12 11h404q11 0 11 -11v-56q0 -11 -11 -11h-330v-234h307q11 0 11 -12v-55q0 -12 -11 -12h-307v-246zM254 847q0 -22 -14 -35.5t-35 -13.5q-22 0 -35.5 13.5t-13.5 35.5t13.5 36t35.5 14
q21 0 35 -14t14 -36zM458 847q0 -22 -14 -35.5t-36 -13.5t-35.5 13.5t-13.5 35.5t13.5 36t35.5 14t36 -14t14 -36z" />
    <glyph glyph-name="Edotaccent" unicode="&#x116;" 
d="M175 78h344q11 0 11 -11v-56q0 -11 -11 -11h-418q-12 0 -12 11v693q0 11 12 11h404q11 0 11 -11v-56q0 -11 -11 -11h-330v-234h307q11 0 11 -12v-55q0 -12 -11 -12h-307v-246zM361 852q0 -23 -16 -39t-39 -16t-39 16t-16 39t16 39t39 16t39 -16t16 -39z" />
    <glyph glyph-name="Egrave" unicode="&#xc8;" 
d="M175 78h344q11 0 11 -11v-56q0 -11 -11 -11h-418q-12 0 -12 11v693q0 11 12 11h404q11 0 11 -11v-56q0 -11 -11 -11h-330v-234h307q11 0 11 -12v-55q0 -12 -11 -12h-307v-246zM293.007 792q6 -7 13.999 -7h51.9971q15.999 0 6.99902 14l-104.993 133q-4 7 -12.999 7
h-69.9961q-6.99902 0 -8.99902 -4.5t2.99902 -9.5z" />
    <glyph glyph-name="Emacron" unicode="&#x112;" 
d="M175 78h344q11 0 11 -11v-56q0 -11 -11 -11h-418q-12 0 -12 11v693q0 11 12 11h404q11 0 11 -11v-56q0 -11 -11 -11h-330v-234h307q11 0 11 -12v-55q0 -12 -11 -12h-307v-246zM169 811q-11 0 -11 11v45q0 12 11 12h272q11 0 11 -12v-45q0 -11 -11 -11h-272z" />
    <glyph glyph-name="Eogonek" unicode="&#x118;" horiz-adv-x="578" 
d="M484 -128q14 0 25 1.5t23 6.5q11 3 14 -7l9 -42q3 -9 -7 -14q-17 -8 -39 -12.5t-43 -4.5q-45 0 -70.5 22t-25.5 60q0 34 24 65.5t64 52.5h-357q-12 0 -12 11v693q0 11 12 11h403q11 0 11 -11v-56q0 -11 -11 -11h-330v-235h307q12 0 12 -11v-56q0 -11 -12 -11h-307v-246
h344q12 0 12 -11v-57q0 -10 -9 -14q-32 -17 -55.5 -41t-23.5 -51q0 -32 42 -32z" />
    <glyph glyph-name="F" unicode="F" horiz-adv-x="559" 
d="M528 648q0 -11 -12 -11h-342v-252h304q11 0 11 -11v-56q0 -11 -11 -11h-304v-296q0 -11 -11 -11h-62q-12 0 -12 11v693q0 11 12 11h415q12 0 12 -11v-56z" />
    <glyph glyph-name="G" unicode="G" horiz-adv-x="646" 
d="M582 90q-45 -46 -108 -73.5t-141 -27.5q-55 0 -104 15.5t-85.5 47t-57.5 77.5t-21 108v242q0 61 20.5 107.5t56 77.5t83 46.5t101.5 15.5q63 0 124.5 -18t112.5 -53q5 -3 5.5 -7.5t-2.5 -8.5l-34 -47q-5 -8 -15 -3q-86 57 -191 57q-80 0 -128 -43.5t-48 -125.5v-240
q0 -41 13.5 -72t38 -52t58 -32t73.5 -11q52 0 95.5 15t73.5 41v186h-164q-11 0 -11 11v56q0 11 11 11h237q11 0 11 -11v-276q0 -9 -4 -13z" />
    <glyph glyph-name="Gbreve" unicode="&#x11e;" horiz-adv-x="646" 
d="M582 90q-45 -46 -108 -73.5t-141 -27.5q-55 0 -104 15.5t-85.5 47t-57.5 77.5t-21 108v242q0 61 20.5 107.5t56 77.5t83 46.5t101.5 15.5q63 0 124.5 -18t112.5 -53q5 -3 5.5 -7.5t-2.5 -8.5l-34 -47q-5 -8 -15 -3q-86 57 -191 57q-80 0 -128 -43.5t-48 -125.5v-240
q0 -41 13.5 -72t38 -52t58 -32t73.5 -11q52 0 95.5 15t73.5 41v186h-164q-11 0 -11 11v56q0 11 11 11h237q11 0 11 -11v-276q0 -9 -4 -13zM489 910q-8 -61 -49 -99.5t-114 -38.5t-114 38.5t-49 98.5q-1 10 10 13l44 11q10 1 13 -9q7 -40 30.5 -62t65.5 -22t66 22t30 62
q3 10 13 9l44 -11q11 -3 10 -12z" />
    <glyph glyph-name="uni0122" unicode="&#x122;" horiz-adv-x="646" 
d="M582 90q-45 -46 -108 -73.5t-141 -27.5q-55 0 -104 15.5t-85.5 47t-57.5 77.5t-21 108v242q0 61 20.5 107.5t56 77.5t83 46.5t101.5 15.5q63 0 124.5 -18t112.5 -53q5 -3 5.5 -7.5t-2.5 -8.5l-34 -47q-5 -8 -15 -3q-86 57 -191 57q-80 0 -128 -43.5t-48 -125.5v-240
q0 -41 13.5 -72t38 -52t58 -32t73.5 -11q52 0 95.5 15t73.5 41v186h-164q-11 0 -11 11v56q0 11 11 11h237q11 0 11 -11v-276q0 -9 -4 -13zM260 -244q-14 0 -11 12l37 146q3 10 13 10h54q13 0 10 -13l-52 -146q-3 -9 -13 -9h-38z" />
    <glyph glyph-name="Gdotaccent" unicode="&#x120;" horiz-adv-x="646" 
d="M582 90q-45 -46 -108 -73.5t-141 -27.5q-55 0 -104 15.5t-85.5 47t-57.5 77.5t-21 108v242q0 61 20.5 107.5t56 77.5t83 46.5t101.5 15.5q63 0 124.5 -18t112.5 -53q5 -3 5.5 -7.5t-2.5 -8.5l-34 -47q-5 -8 -15 -3q-86 57 -191 57q-80 0 -128 -43.5t-48 -125.5v-240
q0 -41 13.5 -72t38 -52t58 -32t73.5 -11q52 0 95.5 15t73.5 41v186h-164q-11 0 -11 11v56q0 11 11 11h237q11 0 11 -11v-276q0 -9 -4 -13zM381 852q0 -23 -16 -39t-39 -16t-39 16t-16 39t16 39t39 16t39 -16t16 -39z" />
    <glyph glyph-name="H" unicode="H" horiz-adv-x="682" 
d="M508 704q0 11 12 11h62q11 0 11 -11v-693q0 -11 -11 -11h-62q-12 0 -12 11v313h-334v-313q0 -11 -11 -11h-62q-12 0 -12 11v693q0 11 12 11h62q11 0 11 -11v-302h334v302z" />
    <glyph glyph-name="Hbar" unicode="&#x126;" horiz-adv-x="692" 
d="M657 614q12 0 12 -12v-36q0 -12 -12 -12h-59v-543q0 -11 -11 -11h-63q-11 0 -11 11v313h-334v-313q0 -11 -11 -11h-62q-12 0 -12 11v543h-59q-11 0 -11 12v36q0 12 11 12h59v90q0 11 12 11h62q11 0 11 -11v-90h334v90q0 11 11 11h63q11 0 11 -11v-90h59zM513 401v153
h-334v-153h334z" />
    <glyph glyph-name="I" unicode="I" horiz-adv-x="263" 
d="M174 11q0 -11 -11 -11h-62q-12 0 -12 11v693q0 11 12 11h62q11 0 11 -11v-693z" />
    <glyph glyph-name="IJ" unicode="&#x132;" horiz-adv-x="776" 
d="M174 11q0 -11 -11 -11h-62q-12 0 -12 11v693q0 11 12 11h62q11 0 11 -11v-693zM692 228q0 -58 -15.5 -102.5t-43.5 -75t-66 -46t-84 -15.5q-61 0 -107 20t-90 58q-9 6 -2 16l28 46q6 10 16 2q35 -28 71.5 -44.5t83.5 -16.5q58 0 91 37.5t33 121.5v475q0 11 12 11h62
q11 0 11 -11v-476v0z" />
    <glyph glyph-name="Iacute" unicode="&#xcd;" horiz-adv-x="263" 
d="M173 11q0 -11 -11 -11h-62q-12 0 -12 11v693q0 11 12 11h62q11 0 11 -11v-693zM152 792q-6 -7 -14 -7h-52q-16 0 -7 14l105 133q4 7 13 7h70q7 0 9 -4.5t-3 -9.5z" />
    <glyph glyph-name="Icircumflex" unicode="&#xce;" horiz-adv-x="263" 
d="M0 785q-7 0 -9.5 4t2.5 10l99 132q5 8 14 8h47q9 0 14 -8l102 -132q5 -6 2.5 -10t-9.5 -4h-54q-8 0 -14 7l-65 86l-62 -86q-4 -7 -13 -7h-54zM174 11q0 -11 -11 -11h-62q-12 0 -12 11v693q0 11 12 11h62q11 0 11 -11v-693z" />
    <glyph glyph-name="Idieresis" unicode="&#xcf;" horiz-adv-x="263" 
d="M100 0q-11 0 -11 11v693q0 11 11 11h62q12 0 12 -11v-693q0 -11 -12 -11h-62zM92 857q0 -22 -14 -35.5t-35 -13.5t-35 13.5t-14 35.5t14 36t35 14t35 -14t14 -36zM269 857q0 -22 -13.5 -35.5t-36.5 -13.5q-22 0 -35.5 13.5t-13.5 35.5t13.5 36t35.5 14q23 0 36.5 -14
t13.5 -36z" />
    <glyph glyph-name="Idotaccent" unicode="&#x130;" horiz-adv-x="263" 
d="M174 11q0 -11 -11 -11h-62q-12 0 -12 11v693q0 11 12 11h62q11 0 11 -11v-693zM187 852q0 -23 -16 -39t-39 -16t-39 16t-16 39t16 39t39 16t39 -16t16 -39z" />
    <glyph glyph-name="Igrave" unicode="&#xcc;" horiz-adv-x="263" 
d="M174 11q0 -11 -11 -11h-62q-12 0 -12 11v693q0 11 12 11h62q11 0 11 -11v-693zM103.007 792q6 -7 13.999 -7h51.9971q15.999 0 6.99902 14l-104.993 133q-4 7 -12.999 7h-69.9961q-6.99902 0 -8.99902 -4.5t2.99902 -9.5z" />
    <glyph glyph-name="Imacron" unicode="&#x12a;" horiz-adv-x="264" 
d="M4 882q0 11 11 11h234q11 0 11 -11v-44q0 -11 -11 -11h-234q-11 0 -11 11v44zM175 11q0 -11 -12 -11h-62q-12 0 -12 11v693q0 11 12 11h62q12 0 12 -11v-693z" />
    <glyph glyph-name="Iogonek" unicode="&#x12e;" horiz-adv-x="263" 
d="M151 -128q12 0 24 1.5t23 6.5q11 3 14 -8l9 -42q3 -9 -7 -14q-38 -16 -80 -16q-45 0 -71 22t-26 62q0 32 16 63t44 54q-8 2 -8 13v690q0 11 11 11h63q11 0 11 -11v-693q0 -11 -9 -12q-26 -19 -41 -45t-15 -47q0 -18 11 -26.5t31 -8.5z" />
    <glyph glyph-name="J" unicode="J" horiz-adv-x="506" 
d="M421 228q0 -58 -15.5 -102.5t-43.5 -75t-66 -46t-84 -15.5q-61 0 -107 20t-90 58q-9 6 -2 16l28 46q6 10 16 2q35 -28 71.5 -44.5t83.5 -16.5q58 0 91 37.5t33 121.5v475q0 11 12 11h62q11 0 11 -11v-476v0z" />
    <glyph glyph-name="K" unicode="K" horiz-adv-x="614" 
d="M101 0q-12 0 -12 11v693q0 11 12 11h62q11 0 11 -11v-331l309 335q7 7 15 7h80q8 0 10 -4.5t-3 -9.5l-287 -308l307 -379q5 -6 2.5 -10t-9.5 -4h-81q-10 0 -14 7l-262 326l-67 -69v-253q0 -11 -11 -11h-62z" />
    <glyph glyph-name="uni0136" unicode="&#x136;" horiz-adv-x="614" 
d="M101 0q-12 0 -12 11v693q0 11 12 11h62q11 0 11 -11v-331l309 335q7 7 15 7h80q8 0 10 -4.5t-3 -9.5l-287 -308l307 -379q5 -6 2.5 -10t-9.5 -4h-81q-10 0 -14 7l-262 326l-67 -69v-253q0 -11 -11 -11h-62zM251 -244q-14 0 -11 12l37 146q3 10 13 10h54q13 0 10 -13
l-52 -146q-3 -9 -13 -9h-38z" />
    <glyph glyph-name="L" unicode="L" horiz-adv-x="512" 
d="M101 0q-12 0 -12 11v693q0 11 12 11h63q11 0 11 -11v-626h314q11 0 11 -11v-56q0 -11 -11 -11h-388z" />
    <glyph glyph-name="Lacute" unicode="&#x139;" horiz-adv-x="512" 
d="M100 0q-12 0 -12 11v693q0 11 12 11h63q11 0 11 -11v-626h314q11 0 11 -11v-56q0 -11 -11 -11h-388zM161 792q-6 -7 -14 -7h-52q-16 0 -7 14l105 133q4 7 13 7h70q7 0 9 -4.5t-3 -9.5z" />
    <glyph glyph-name="Lcaron" unicode="&#x13d;" horiz-adv-x="512" 
d="M298 538q-14 0 -10 13l41 154q1 10 12 10h55q14 0 10 -13l-51 -155q-2 -9 -12 -9h-45zM101 0q-12 0 -12 11v693q0 11 12 11h63q11 0 11 -11v-626h314q11 0 11 -11v-56q0 -11 -11 -11h-388z" />
    <glyph glyph-name="uni013B" unicode="&#x13b;" horiz-adv-x="512" 
d="M101 0q-12 0 -12 11v693q0 11 12 11h63q11 0 11 -11v-626h314q11 0 11 -11v-56q0 -11 -11 -11h-388zM199 -244q-14 0 -11 12l37 146q3 10 13 10h54q13 0 10 -13l-52 -146q-3 -9 -13 -9h-38z" />
    <glyph glyph-name="Ldot" unicode="&#x13f;" horiz-adv-x="512" 
d="M101 0q-12 0 -12 11v693q0 11 12 11h63q11 0 11 -11v-626h314q11 0 11 -11v-56q0 -11 -11 -11h-388zM393 351q0 -24 -15.5 -39.5t-39.5 -15.5q-25 0 -40 15.5t-15 39.5q0 25 15 40.5t40 15.5q24 0 39.5 -15.5t15.5 -40.5z" />
    <glyph glyph-name="Lslash" unicode="&#x141;" horiz-adv-x="530" 
d="M193 78h314q11 0 11 -11v-56q0 -11 -11 -11h-388q-11 0 -11 11v269l-82 -53q-14 -9 -14 7v54q0 8 7 14l89 57v345q0 11 11 11h62q12 0 12 -11v-290l135 88q14 9 14 -7v-54q0 -8 -7 -14l-142 -92v-257z" />
    <glyph glyph-name="M" unicode="M" horiz-adv-x="853" 
d="M101 0q-12 0 -12 11v693q0 11 12 11h76q9 0 13 -8l155 -282q9 -17 20.5 -38.5t22.5 -43.5t20.5 -42t16.5 -34h3q7 14 16.5 34t20.5 42t22.5 43t20.5 38l156 283q3 8 13 8h76q11 0 11 -11v-693q0 -11 -11 -11h-63q-11 0 -11 11v302q0 63 2 135t4 136l-2 1
q-20 -41 -43 -84.5t-48 -91.5l-125 -232q-5 -8 -14 -8h-53q-10 0 -13 8l-125 232q-26 48 -48.5 91.5t-42.5 84.5l-2 -1q2 -64 3.5 -136t1.5 -135v-302q0 -11 -11 -11h-62z" />
    <glyph glyph-name="N" unicode="N" horiz-adv-x="704" 
d="M101 0q-12 0 -12 11v693q0 11 12 11h70q9 0 14 -8l265 -432q20 -35 42.5 -73t41.5 -73l3 1q-2 31 -3 65.5t-1.5 69.5t-1 69.5t-0.5 66.5v303q0 11 11 11h62q11 0 11 -11v-693q0 -11 -11 -11h-70q-10 0 -14 7l-263 417q-22 35 -45 75.5t-42 76.5l-2 -1q2 -60 4 -130.5
t2 -130.5v-303q0 -11 -12 -11h-61z" />
    <glyph glyph-name="Nacute" unicode="&#x143;" horiz-adv-x="704" 
d="M101 0q-12 0 -12 11v693q0 11 12 11h70q9 0 14 -8l265 -432q20 -35 42.5 -73t41.5 -73l3 1q-2 31 -3 65.5t-1.5 69.5t-1 69.5t-0.5 66.5v303q0 11 11 11h62q11 0 11 -11v-693q0 -11 -11 -11h-70q-10 0 -14 7l-263 417q-22 35 -45 75.5t-42 76.5l-2 -1q2 -60 4 -130.5
t2 -130.5v-303q0 -11 -12 -11h-61zM369 792q-6 -7 -14 -7h-52q-16 0 -7 14l105 133q4 7 13 7h70q7 0 9 -4.5t-3 -9.5z" />
    <glyph glyph-name="Ncaron" unicode="&#x147;" horiz-adv-x="704" 
d="M101 0q-12 0 -12 11v693q0 11 12 11h70q9 0 14 -8l265 -432q20 -35 42.5 -73t41.5 -73l3 1q-2 31 -3 65.5t-1.5 69.5t-1 69.5t-0.5 66.5v303q0 11 11 11h62q11 0 11 -11v-693q0 -11 -11 -11h-70q-10 0 -14 7l-263 417q-22 35 -45 75.5t-42 76.5l-2 -1q2 -60 4 -130.5
t2 -130.5v-303q0 -11 -12 -11h-61zM196 939.048q-8 0 -9.5 -4.5q-1.5 -4.49902 3.5 -9.49902l123 -132.992q6 -6.99902 14 -6.99902h52q7 0 14 6.99902l123 132.992q5 5 3.5 9.49902q-1.5 4.5 -9.5 4.5h-59q-8 0 -14 -6.99902l-84 -85.9951l-84 85.9951
q-6 6.99902 -14 6.99902h-59z" />
    <glyph glyph-name="uni0145" unicode="&#x145;" horiz-adv-x="704" 
d="M101 0q-12 0 -12 11v693q0 11 12 11h70q9 0 14 -8l265 -432q20 -35 42.5 -73t41.5 -73l3 1q-2 31 -3 65.5t-1.5 69.5t-1 69.5t-0.5 66.5v303q0 11 11 11h62q11 0 11 -11v-693q0 -11 -11 -11h-70q-10 0 -14 7l-263 417q-22 35 -45 75.5t-42 76.5l-2 -1q2 -60 4 -130.5
t2 -130.5v-303q0 -11 -12 -11h-61zM293 -244q-14 0 -11 12l37 146q3 10 13 10h54q13 0 10 -13l-52 -146q-3 -9 -13 -9h-38z" />
    <glyph glyph-name="Eng" unicode="&#x14a;" horiz-adv-x="704" 
d="M531 704q0 11 11 11h62q11 0 11 -11v-710q0 -105 -36.5 -150t-112.5 -45q-23 0 -44 3q-11 1 -11 12v53q0 11 12 11q10 -1 19.5 -1.5t14.5 -0.5q42 0 58.5 28t17.5 89l-268 420q-24 38 -49 81t-46 82l-2 -2q2 -54 4 -113.5t2 -113.5v-336q0 -11 -12 -11h-61q-12 0 -12 11
v693q0 11 12 11h70q9 0 14 -8l253 -415q24 -39 49 -81t47 -82l3 2q-3 57 -4.5 120t-1.5 120v333z" />
    <glyph glyph-name="Ntilde" unicode="&#xd1;" horiz-adv-x="704" 
d="M101 0q-12 0 -12 11v693q0 11 12 11h70q9 0 14 -8l265 -432q20 -35 42.5 -73t41.5 -73l3 1q-2 31 -3 65.5t-1.5 69.5t-1 69.5t-0.5 66.5v303q0 11 11 11h62q11 0 11 -11v-693q0 -11 -11 -11h-70q-10 0 -14 7l-263 417q-22 35 -45 75.5t-42 76.5l-2 -1q2 -60 4 -130.5
t2 -130.5v-303q0 -11 -12 -11h-61zM509 881q-4 -12 -12 -25t-18.5 -23.5t-24.5 -17.5t-30 -7q-18 0 -36 7.5t-35 16.5t-31.5 16.5t-29.5 7.5q-16 0 -25 -10.5t-16 -23.5q-3 -7 -7 -7t-8 2l-33 19q-6 3 -7 6.5t1 8.5q9 24 30.5 47t53.5 23q20 0 38 -7.5t35 -17.5
q15 -8 31.5 -15.5t30.5 -7.5t21.5 8.5t16.5 25.5q6 10 15 5l34 -18q5 -3 6 -6t0 -7z" />
    <glyph glyph-name="O" unicode="O" horiz-adv-x="674" 
d="M610 251q0 -60 -19 -108.5t-54 -82.5t-86 -52.5t-114 -18.5t-114 18.5t-86 52.5t-54 82.5t-19 108.5v211q0 61 19 110t54 83.5t86 52.5t114 18t114 -18t86 -52.5t54 -83.5t19 -110v-211zM150 251q0 -85 48.5 -133t138.5 -48t138 48t48 133v211q0 88 -48 136.5t-138 48.5
t-138.5 -48.5t-48.5 -136.5v-211z" />
    <glyph glyph-name="Oacute" unicode="&#xd3;" horiz-adv-x="674" 
d="M610 251q0 -60 -19 -108.5t-54 -82.5t-86 -52.5t-114 -18.5t-114 18.5t-86 52.5t-54 82.5t-19 108.5v211q0 61 19 110t54 83.5t86 52.5t114 18t114 -18t86 -52.5t54 -83.5t19 -110v-211zM150 251q0 -85 48.5 -133t138.5 -48t138 48t48 133v211q0 88 -48 136.5t-138 48.5
t-138.5 -48.5t-48.5 -136.5v-211zM345 792q-6 -7 -14 -7h-52q-16 0 -7 14l105 133q4 7 13 7h70q7 0 9 -4.5t-3 -9.5z" />
    <glyph glyph-name="Ocircumflex" unicode="&#xd4;" horiz-adv-x="674" 
d="M610 251q0 -60 -19 -108.5t-54 -82.5t-86 -52.5t-114 -18.5t-114 18.5t-86 52.5t-54 82.5t-19 108.5v211q0 61 19 110t54 83.5t86 52.5t114 18t114 -18t86 -52.5t54 -83.5t19 -110v-211zM150 251q0 -85 48.5 -133t138.5 -48t138 48t48 133v211q0 88 -48 136.5t-138 48.5
t-138.5 -48.5t-48.5 -136.5v-211zM180 785q-8 0 -9.5 4.5t3.5 9.5l123 133q6 7 14 7h52q7 0 14 -7l123 -133q5 -5 3.5 -9.5t-9.5 -4.5h-59q-8 0 -14 7l-84 86l-84 -86q-6 -7 -14 -7h-59z" />
    <glyph glyph-name="Odieresis" unicode="&#xd6;" horiz-adv-x="674" 
d="M610 251q0 -60 -19 -108.5t-54 -82.5t-86 -52.5t-114 -18.5t-114 18.5t-86 52.5t-54 82.5t-19 108.5v211q0 61 19 110t54 83.5t86 52.5t114 18t114 -18t86 -52.5t54 -83.5t19 -110v-211zM150 251q0 -85 48.5 -133t138.5 -48t138 48t48 133v211q0 88 -48 136.5t-138 48.5
t-138.5 -48.5t-48.5 -136.5v-211zM284 847q0 -22 -14 -35.5t-35 -13.5q-22 0 -35.5 13.5t-13.5 35.5t13.5 36t35.5 14q21 0 35 -14t14 -36zM488 847q0 -22 -14 -35.5t-36 -13.5t-35.5 13.5t-13.5 35.5t13.5 36t35.5 14t36 -14t14 -36z" />
    <glyph glyph-name="Ograve" unicode="&#xd2;" horiz-adv-x="674" 
d="M610 251q0 -60 -19 -108.5t-54 -82.5t-86 -52.5t-114 -18.5t-114 18.5t-86 52.5t-54 82.5t-19 108.5v211q0 61 19 110t54 83.5t86 52.5t114 18t114 -18t86 -52.5t54 -83.5t19 -110v-211zM150 251q0 -85 48.5 -133t138.5 -48t138 48t48 133v211q0 88 -48 136.5t-138 48.5
t-138.5 -48.5t-48.5 -136.5v-211zM320.007 792q6 -7 13.999 -7h51.9971q15.999 0 6.99902 14l-104.993 133q-4 7 -12.999 7h-69.9961q-6.99902 0 -8.99902 -4.5t2.99902 -9.5z" />
    <glyph glyph-name="Ohungarumlaut" unicode="&#x150;" horiz-adv-x="674" 
d="M610 251q0 -60 -19 -108.5t-54 -82.5t-86 -52.5t-114 -18.5t-114 18.5t-86 52.5t-54 82.5t-19 108.5v211q0 61 19 110t54 83.5t86 52.5t114 18t114 -18t86 -52.5t54 -83.5t19 -110v-211zM150 251q0 -85 48.5 -133t138.5 -48t138 48t48 133v211q0 88 -48 136.5t-138 48.5
t-138.5 -48.5t-48.5 -136.5v-211zM198 785q-16 0 -7 14l102 132q5 8 14 8h67q8 0 10 -4.5t-3 -9.5l-116 -133q-6 -7 -14 -7h-53zM382 785q-8 0 -9.5 4.5t2.5 9.5l107 133q5 7 14 7h68q7 0 9 -4.5t-3 -9.5l-122 -134q-5 -6 -14 -6h-52z" />
    <glyph glyph-name="Omacron" unicode="&#x14c;" horiz-adv-x="674" 
d="M610 251q0 -60 -19 -108.5t-54 -82.5t-86 -52.5t-114 -18.5t-114 18.5t-86 52.5t-54 82.5t-19 108.5v211q0 61 19 110t54 83.5t86 52.5t114 18t114 -18t86 -52.5t54 -83.5t19 -110v-211zM150 251q0 -85 48.5 -133t138.5 -48t138 48t48 133v211q0 88 -48 136.5t-138 48.5
t-138.5 -48.5t-48.5 -136.5v-211zM200 811q-11 0 -11 11v45q0 12 11 12h272q11 0 11 -12v-45q0 -11 -11 -11h-272z" />
    <glyph glyph-name="Oslash" unicode="&#xd8;" horiz-adv-x="688" 
d="M111 -54q-15 0 -8 14l47 90q-42 35 -64 85t-22 115v212q0 61 19.5 110t55.5 83t88 52.5t117 18.5q83 0 144 -29l31 59q4 8 13 8h50q7 0 9.5 -4t-1.5 -10l-47 -89q40 -35 60.5 -85.5t20.5 -113.5v-212q0 -60 -19.5 -108.5t-55.5 -82t-88 -52t-117 -18.5q-40 0 -74 7
t-63 20l-33 -62q-3 -8 -13 -8h-50zM153 250q0 -72 40 -118l256 490q-44 23 -105 23q-92 0 -141.5 -47.5t-49.5 -135.5v-212zM246 91q42 -20 98 -20q92 0 141.5 47t49.5 132v212q0 70 -36 114z" />
    <glyph glyph-name="Otilde" unicode="&#xd5;" horiz-adv-x="674" 
d="M610 251q0 -60 -19 -108.5t-54 -82.5t-86 -52.5t-114 -18.5t-114 18.5t-86 52.5t-54 82.5t-19 108.5v211q0 61 19 110t54 83.5t86 52.5t114 18t114 -18t86 -52.5t54 -83.5t19 -110v-211zM150 251q0 -85 48.5 -133t138.5 -48t138 48t48 133v211q0 88 -48 136.5t-138 48.5
t-138.5 -48.5t-48.5 -136.5v-211zM493 881q-4 -12 -12 -25t-18.5 -23.5t-24.5 -17.5t-30 -7q-18 0 -36 7.5t-35 16.5t-31.5 16.5t-29.5 7.5q-16 0 -25 -10.5t-16 -23.5q-3 -7 -7 -7t-8 2l-33 19q-6 3 -7 6.5t1 8.5q9 24 30.5 47t53.5 23q20 0 38 -7.5t35 -17.5
q15 -8 31.5 -15.5t30.5 -7.5t21.5 8.5t16.5 25.5q6 10 15 5l34 -18q5 -3 6 -6t0 -7z" />
    <glyph glyph-name="OE" unicode="&#x152;" horiz-adv-x="979" 
d="M516 0q-12 0 -12 11v52q-32 -36 -77.5 -55t-96.5 -19q-53 0 -101.5 16t-85 48t-58 81t-21.5 115v217q0 66 21.5 115t58 81.5t85 48t101.5 15.5q51 0 96.5 -19.5t77.5 -56.5v54q0 11 12 11h388q11 0 11 -11v-58q0 -12 -11 -12h-313v-233h290q12 0 12 -11v-58
q0 -11 -12 -11h-290v-240h327q12 0 12 -12v-58q0 -11 -12 -11h-402zM152 249q0 -47 14 -81t38 -56.5t56.5 -33.5t69.5 -11q36 0 67.5 11t55 33t37 56t13.5 79v223q0 47 -13.5 81t-37 55.5t-55 32t-67.5 10.5q-37 0 -69.5 -10.5t-56.5 -32.5t-38 -56.5t-14 -82.5v-217z" />
    <glyph glyph-name="P" unicode="P" horiz-adv-x="625" 
d="M341 715q119 0 183.5 -62t64.5 -172q0 -112 -65 -173.5t-183 -61.5h-167v-235q0 -11 -11 -11h-63q-11 0 -11 11v693q0 11 11 11h241zM332 325q171 0 171 156q0 155 -171 155h-158v-311h158z" />
    <glyph glyph-name="Thorn" unicode="&#xde;" horiz-adv-x="642" 
d="M101 0q-12 0 -12 11v693q0 11 12 11h64q11 0 11 -11v-99h166q118 0 184.5 -61.5t66.5 -170.5q0 -111 -66.5 -172t-184.5 -61h-166v-129q0 -11 -11 -11h-64zM176 221h164q86 0 125 39t39 113q0 75 -42 113t-122 38h-164v-303z" />
    <glyph glyph-name="Q" unicode="Q" horiz-adv-x="675" 
d="M579 -36q-9 -9 -17 0l-64 67q-32 -20 -72.5 -31t-88.5 -11q-64 0 -114.5 18.5t-86 53t-54 82.5t-18.5 108v211q0 61 18.5 110t54 83t86 52.5t114.5 18.5t114.5 -18.5t85.5 -52.5t54 -83t19 -110v-211q0 -105 -58 -172l61 -65q8 -9 0 -16zM150 251q0 -85 48.5 -133.5
t138.5 -48.5q29 0 54.5 7t46.5 18l-91 95q-7 9 0 16l34 34q9 9 17 0l93 -97q15 22 23.5 49.5t8.5 59.5v211q0 88 -48 136.5t-138 48.5t-138.5 -48.5t-48.5 -136.5v-211z" />
    <glyph glyph-name="R" unicode="R" horiz-adv-x="631" 
d="M508 0q-10 0 -14 7l-199 272h-121v-268q0 -11 -11 -11h-62q-12 0 -12 11v693q0 11 12 11h225q118 0 185 -57.5t67 -161.5q0 -86 -49.5 -140.5t-138.5 -69.5l203 -272q5 -6 2.5 -10t-9.5 -4h-78zM174 637v-281h153q164 0 164 140q0 141 -164 141h-153z" />
    <glyph glyph-name="Racute" unicode="&#x154;" horiz-adv-x="631" 
d="M508 0q-10 0 -14 7l-199 272h-121v-268q0 -11 -11 -11h-62q-12 0 -12 11v693q0 11 12 11h225q118 0 185 -57.5t67 -161.5q0 -86 -49.5 -140.5t-138.5 -69.5l203 -272q5 -6 2.5 -10t-9.5 -4h-78zM174 637v-281h153q164 0 164 140q0 141 -164 141h-153zM329 792
q-6 -7 -14 -7h-52q-16 0 -7 14l105 133q4 7 13 7h70q7 0 9 -4.5t-3 -9.5z" />
    <glyph glyph-name="Rcaron" unicode="&#x158;" horiz-adv-x="631" 
d="M508 0q-10 0 -14 7l-199 272h-121v-268q0 -11 -11 -11h-62q-12 0 -12 11v693q0 11 12 11h225q118 0 185 -57.5t67 -161.5q0 -86 -49.5 -140.5t-138.5 -69.5l203 -272q5 -6 2.5 -10t-9.5 -4h-78zM174 637v-281h153q164 0 164 140q0 141 -164 141h-153zM210 939q8 0 14 -7
l84 -86l84 86q6 7 14 7h59q8 0 9.5 -4.5t-3.5 -9.5l-123 -133q-7 -7 -14 -7h-52q-8 0 -14 7l-123 133q-5 5 -3.5 9.5t9.5 4.5h59z" />
    <glyph glyph-name="uni0156" unicode="&#x156;" horiz-adv-x="631" 
d="M508 0q-10 0 -14 7l-199 272h-121v-268q0 -11 -11 -11h-62q-12 0 -12 11v693q0 11 12 11h225q118 0 185 -57.5t67 -161.5q0 -86 -49.5 -140.5t-138.5 -69.5l203 -272q5 -6 2.5 -10t-9.5 -4h-78zM174 637v-281h153q164 0 164 140q0 141 -164 141h-153zM257 -244
q-14 0 -11 12l37 146q3 10 13 10h54q13 0 10 -13l-52 -146q-3 -9 -13 -9h-38z" />
    <glyph glyph-name="S" unicode="S" horiz-adv-x="606" 
d="M564 194q0 -54 -21 -92.5t-57 -63.5t-83.5 -37t-100.5 -12q-74 0 -132.5 23.5t-117.5 71.5q-8 7 -2 16l34 47q7 10 15 3q52 -39 100.5 -59t105.5 -21q34 0 65.5 7t55.5 22t38 38t14 55q0 31 -13 52.5t-37.5 36.5t-59 25.5t-77.5 19.5q-45 10 -88 25.5t-76.5 40t-54 60
t-20.5 85.5q0 49 20.5 85t55.5 59t81.5 34t97.5 11q67 0 121.5 -19t111.5 -61q10 -6 3 -15l-33 -47q-6 -9 -16 -2q-90 62 -194 65q-72 0 -117 -28.5t-45 -83.5q0 -29 12.5 -49t35.5 -34t55.5 -24.5t71.5 -19.5q50 -11 95.5 -26t80 -39t55 -60t20.5 -89z" />
    <glyph glyph-name="Sacute" unicode="&#x15a;" horiz-adv-x="606" 
d="M564 194q0 -54 -21 -92.5t-57 -63.5t-83.5 -37t-100.5 -12q-74 0 -132.5 23.5t-117.5 71.5q-8 7 -2 16l34 47q7 10 15 3q52 -39 100.5 -59t105.5 -21q34 0 65.5 7t55.5 22t38 38t14 55q0 31 -13 52.5t-37.5 36.5t-59 25.5t-77.5 19.5q-45 10 -88 25.5t-76.5 40t-54 60
t-20.5 85.5q0 49 20.5 85t55.5 59t81.5 34t97.5 11q67 0 121.5 -19t111.5 -61q10 -6 3 -15l-33 -47q-6 -9 -16 -2q-90 62 -194 65q-72 0 -117 -28.5t-45 -83.5q0 -29 12.5 -49t35.5 -34t55.5 -24.5t71.5 -19.5q50 -11 95.5 -26t80 -39t55 -60t20.5 -89zM316 792
q-6 -7 -14 -7h-52q-16 0 -7 14l105 133q4 7 13 7h70q7 0 9 -4.5t-3 -9.5z" />
    <glyph glyph-name="Scaron" unicode="&#x160;" horiz-adv-x="606" 
d="M564 194q0 -54 -21 -92.5t-57 -63.5t-83.5 -37t-100.5 -12q-74 0 -132.5 23.5t-117.5 71.5q-8 7 -2 16l34 47q7 10 15 3q52 -39 100.5 -59t105.5 -21q34 0 65.5 7t55.5 22t38 38t14 55q0 31 -13 52.5t-37.5 36.5t-59 25.5t-77.5 19.5q-45 10 -88 25.5t-76.5 40t-54 60
t-20.5 85.5q0 49 20.5 85t55.5 59t81.5 34t97.5 11q67 0 121.5 -19t111.5 -61q10 -6 3 -15l-33 -47q-6 -9 -16 -2q-90 62 -194 65q-72 0 -117 -28.5t-45 -83.5q0 -29 12.5 -49t35.5 -34t55.5 -24.5t71.5 -19.5q50 -11 95.5 -26t80 -39t55 -60t20.5 -89zM145 939.048
q-8 0 -9.5 -4.5q-1.5 -4.49902 3.5 -9.49902l123 -132.992q6 -6.99902 14 -6.99902h52q7 0 14 6.99902l123 132.992q5 5 3.5 9.49902q-1.5 4.5 -9.5 4.5h-59q-8 0 -14 -6.99902l-84 -85.9951l-84 85.9951q-6 6.99902 -14 6.99902h-59z" />
    <glyph glyph-name="Scedilla" unicode="&#x15e;" horiz-adv-x="606" 
d="M413 -121q0 -42 -32.5 -64t-85.5 -22q-32 0 -59 9q-9 3 -9 13v25q0 13 13 10q12 -4 23.5 -5.5t22.5 -1.5q25 0 41.5 8.5t17.5 30.5q1 17 -14 26.5t-50 10.5q-10 0 -14 8q-2 4 1 11l21 52q-69 2 -125 25t-112 69q-8 7 -2 16l34 47q7 10 15 3q52 -39 100.5 -58.5
t105.5 -20.5q34 0 65.5 7t55.5 22t38 37.5t14 54.5q0 31 -13 52.5t-37.5 36.5t-59 25.5t-77.5 19.5q-45 10 -88 25.5t-76.5 40t-54 60t-20.5 85.5q0 49 20.5 85t55.5 59t81.5 34t97.5 11q67 0 121.5 -19t111.5 -61q10 -6 3 -15l-33 -47q-6 -9 -16 -2q-90 62 -194 65
q-72 0 -117 -28.5t-45 -83.5q0 -29 12.5 -49t35.5 -34t55.5 -24.5t71.5 -19.5q50 -11 95.5 -26t80 -39t55 -60t20.5 -89q0 -48 -17.5 -84.5t-47.5 -61t-70.5 -38.5t-86.5 -18v-2l-17 -41q39 -2 63.5 -20.5t24.5 -49.5z" />
    <glyph glyph-name="uni0218" unicode="&#x218;" horiz-adv-x="606" 
d="M564 194q0 -54 -21 -92.5t-57 -63.5t-83.5 -37t-100.5 -12q-74 0 -132.5 23.5t-117.5 71.5q-8 7 -2 16l34 47q7 10 15 3q52 -39 100.5 -59t105.5 -21q34 0 65.5 7t55.5 22t38 38t14 55q0 31 -13 52.5t-37.5 36.5t-59 25.5t-77.5 19.5q-45 10 -88 25.5t-76.5 40t-54 60
t-20.5 85.5q0 49 20.5 85t55.5 59t81.5 34t97.5 11q67 0 121.5 -19t111.5 -61q10 -6 3 -15l-33 -47q-6 -9 -16 -2q-90 62 -194 65q-72 0 -117 -28.5t-45 -83.5q0 -29 12.5 -49t35.5 -34t55.5 -24.5t71.5 -19.5q50 -11 95.5 -26t80 -39t55 -60t20.5 -89zM242 -244
q-14 0 -11 12l37 146q3 10 13 10h54q13 0 10 -13l-52 -146q-3 -9 -13 -9h-38z" />
    <glyph glyph-name="T" unicode="T" horiz-adv-x="561" 
d="M537 715q12 0 12 -11v-56q0 -11 -12 -11h-214v-626q0 -11 -12 -11h-62q-12 0 -12 11v626h-214q-11 0 -11 11v56q0 11 11 11h514z" />
    <glyph glyph-name="Tbar" unicode="&#x166;" horiz-adv-x="571" 
d="M253 0q-11 0 -11 11v297h-118q-11 0 -11 11v36q0 12 11 12h118v270h-212q-11 0 -11 11v56q0 11 11 11h511q11 0 11 -11v-56q0 -11 -11 -11h-213v-270h117q12 0 12 -12v-36q0 -11 -12 -11h-117v-297q0 -11 -12 -11h-63z" />
    <glyph glyph-name="Tcaron" unicode="&#x164;" horiz-adv-x="561" 
d="M537 715q12 0 12 -11v-56q0 -11 -12 -11h-214v-626q0 -11 -12 -11h-62q-12 0 -12 11v626h-214q-11 0 -11 11v56q0 11 11 11h514zM182 939q8 0 14 -7l84 -86l84 86q6 7 14 7h59q8 0 9.5 -4.5t-3.5 -9.5l-123 -133q-7 -7 -14 -7h-52q-8 0 -14 7l-123 133q-5 5 -3.5 9.5
t9.5 4.5h59z" />
    <glyph glyph-name="uni0162" unicode="&#x162;" horiz-adv-x="561" 
d="M220 -244q-14 0 -11 12l37 146q3 10 13 10h54q13 0 10 -13l-52 -146q-3 -9 -13 -9h-38zM537 715q12 0 12 -11v-56q0 -11 -12 -11h-214v-626q0 -11 -12 -11h-62q-12 0 -12 11v626h-214q-11 0 -11 11v56q0 11 11 11h514z" />
    <glyph glyph-name="uni021A" unicode="&#x21a;" horiz-adv-x="561" 
d="M537 715q12 0 12 -11v-56q0 -11 -12 -11h-214v-626q0 -11 -12 -11h-62q-12 0 -12 11v626h-214q-11 0 -11 11v56q0 11 11 11h514zM220 -244q-14 0 -11 12l37 146q3 10 13 10h54q13 0 10 -13l-52 -146q-3 -9 -13 -9h-38z" />
    <glyph glyph-name="U" unicode="U" horiz-adv-x="691" 
d="M608 244q0 -57 -18.5 -104t-52.5 -80.5t-83 -52t-109 -18.5t-108.5 18.5t-82.5 52t-52.5 80.5t-18.5 104v460q0 11 12 11h64q11 0 11 -11v-454q0 -85 45 -133.5t130 -48.5t130.5 48.5t45.5 133.5v454q0 11 11 11h64q12 0 12 -11v-460v0z" />
    <glyph glyph-name="Uacute" unicode="&#xda;" horiz-adv-x="691" 
d="M608 244q0 -57 -18.5 -104t-52.5 -80.5t-83 -52t-109 -18.5t-108.5 18.5t-82.5 52t-52.5 80.5t-18.5 104v460q0 11 12 11h64q11 0 11 -11v-454q0 -85 45 -133.5t130 -48.5t130.5 48.5t45.5 133.5v454q0 11 11 11h64q12 0 12 -11v-460v0zM367 792q-6 -7 -14 -7h-52
q-16 0 -7 14l105 133q4 7 13 7h70q7 0 9 -4.5t-3 -9.5z" />
    <glyph glyph-name="Ucircumflex" unicode="&#xdb;" horiz-adv-x="691" 
d="M608 244q0 -57 -18.5 -104t-52.5 -80.5t-83 -52t-109 -18.5t-108.5 18.5t-82.5 52t-52.5 80.5t-18.5 104v460q0 11 12 11h64q11 0 11 -11v-454q0 -85 45 -133.5t130 -48.5t130.5 48.5t45.5 133.5v454q0 11 11 11h64q12 0 12 -11v-460v0zM189 785q-8 0 -9.5 4.5t3.5 9.5
l123 133q6 7 14 7h52q7 0 14 -7l123 -133q5 -5 3.5 -9.5t-9.5 -4.5h-59q-8 0 -14 7l-84 86l-84 -86q-6 -7 -14 -7h-59z" />
    <glyph glyph-name="Udieresis" unicode="&#xdc;" horiz-adv-x="691" 
d="M608 244q0 -57 -18.5 -104t-52.5 -80.5t-83 -52t-109 -18.5t-108.5 18.5t-82.5 52t-52.5 80.5t-18.5 104v460q0 11 12 11h64q11 0 11 -11v-454q0 -85 45 -133.5t130 -48.5t130.5 48.5t45.5 133.5v454q0 11 11 11h64q12 0 12 -11v-460v0zM293 847q0 -22 -14 -35.5
t-35 -13.5q-22 0 -35.5 13.5t-13.5 35.5t13.5 36t35.5 14q21 0 35 -14t14 -36zM497 847q0 -22 -14 -35.5t-36 -13.5t-35.5 13.5t-13.5 35.5t13.5 36t35.5 14t36 -14t14 -36z" />
    <glyph glyph-name="Ugrave" unicode="&#xd9;" horiz-adv-x="691" 
d="M608 244q0 -57 -18.5 -104t-52.5 -80.5t-83 -52t-109 -18.5t-108.5 18.5t-82.5 52t-52.5 80.5t-18.5 104v460q0 11 12 11h64q11 0 11 -11v-454q0 -85 45 -133.5t130 -48.5t130.5 48.5t45.5 133.5v454q0 11 11 11h64q12 0 12 -11v-460v0zM315.007 792q6 -7 13.999 -7
h51.9971q15.999 0 6.99902 14l-104.993 133q-4 7 -12.999 7h-69.9961q-6.99902 0 -8.99902 -4.5t2.99902 -9.5z" />
    <glyph glyph-name="Uhungarumlaut" unicode="&#x170;" horiz-adv-x="691" 
d="M608 244q0 -57 -18.5 -104t-52.5 -80.5t-83 -52t-109 -18.5t-108.5 18.5t-82.5 52t-52.5 80.5t-18.5 104v460q0 11 12 11h64q11 0 11 -11v-454q0 -85 45 -133.5t130 -48.5t130.5 48.5t45.5 133.5v454q0 11 11 11h64q12 0 12 -11v-460v0zM203 785q-16 0 -7 14l102 132
q5 8 14 8h67q8 0 10 -4.5t-3 -9.5l-116 -133q-6 -7 -14 -7h-53zM387 785q-8 0 -9.5 4.5t2.5 9.5l107 133q5 7 14 7h68q7 0 9 -4.5t-3 -9.5l-122 -134q-5 -6 -14 -6h-52z" />
    <glyph glyph-name="Umacron" unicode="&#x16a;" horiz-adv-x="691" 
d="M608 244q0 -57 -18.5 -104t-52.5 -80.5t-83 -52t-109 -18.5t-108.5 18.5t-82.5 52t-52.5 80.5t-18.5 104v460q0 11 12 11h64q11 0 11 -11v-454q0 -85 45 -133.5t130 -48.5t130.5 48.5t45.5 133.5v454q0 11 11 11h64q12 0 12 -11v-460v0zM209 811q-11 0 -11 11v45
q0 12 11 12h272q11 0 11 -12v-45q0 -11 -11 -11h-272z" />
    <glyph glyph-name="Uogonek" unicode="&#x172;" horiz-adv-x="693" 
d="M498 -179q-20 -10 -44.5 -15t-56.5 -5q-41 0 -66 20.5t-25 53.5q0 34 20 64t55 56v1q-7 -3 -18 -5t-19 -2q-53 0 -100.5 16t-83 47.5t-56.5 78t-21 108.5v465q0 11 12 11h64q12 0 12 -11v-465q0 -42 13.5 -73.5t37.5 -53t56 -32.5t68 -11t68.5 11t56.5 32.5t38 53
t14 73.5v465q0 11 12 11h64q11 0 11 -11v-465q0 -48 -10.5 -82.5t-28 -59.5t-38.5 -42t-42 -29q-21 -13 -40.5 -27t-34.5 -29.5t-24 -31.5t-9 -32q0 -36 43 -36q28 0 52 10q11 6 14 -7l10 -39q3 -10 -4 -13z" />
    <glyph glyph-name="Uring" unicode="&#x16e;" horiz-adv-x="691" 
d="M608 244q0 -57 -18.5 -104t-52.5 -80.5t-83 -52t-109 -18.5t-108.5 18.5t-82.5 52t-52.5 80.5t-18.5 104v460q0 11 12 11h64q11 0 11 -11v-454q0 -85 45 -133.5t130 -48.5t130.5 48.5t45.5 133.5v454q0 11 11 11h64q12 0 12 -11v-460v0zM454 874q0 -49 -30 -76.5
t-77 -27.5q-48 0 -79 28t-31 76t31 76.5t79 28.5q47 0 77 -28.5t30 -76.5zM288 874q0 -26 16 -40.5t43 -14.5q26 0 41 14.5t15 40.5t-15 41t-41 15q-27 0 -43 -15t-16 -41z" />
    <glyph glyph-name="V" unicode="V" horiz-adv-x="631" 
d="M272 0q-10 0 -13 9l-252 693q-5 13 9 13h68q10 0 13 -9l145 -409q18 -51 36 -101.5t35 -101.5h3q18 51 35.5 100.5t34.5 100.5l146 411q3 9 13 9h68q12 0 9 -13l-252 -693q-3 -9 -13 -9h-85z" />
    <glyph glyph-name="W" unicode="W" horiz-adv-x="951" 
d="M219 0q-10 0 -13 10l-193 692q-4 13 10 13h67q11 0 12 -10l104 -391q14 -52 26.5 -104.5t23.5 -106.5h2q14 54 30 112.5t31 110.5l110 368q3 10 12 10h68q9 0 12 -10l111 -368q15 -53 31 -111t30 -112h2q11 53 23 106t26 105l104 391q3 10 12 10h68q14 0 10 -13
l-194 -692q-3 -10 -12 -10h-73q-11 0 -12 10l-115 373q-17 56 -31 109.5t-24 101.5h-3q-11 -48 -24.5 -101t-30.5 -110l-115 -373q-3 -10 -12 -10h-73z" />
    <glyph glyph-name="Wacute" unicode="&#x1e82;" horiz-adv-x="951" 
d="M219 0q-10 0 -13 10l-193 692q-4 13 10 13h67q11 0 12 -10l104 -391q14 -52 26.5 -104.5t23.5 -106.5h2q14 54 30 112.5t31 110.5l110 368q3 10 12 10h68q9 0 12 -10l111 -368q15 -53 31 -111t30 -112h2q11 53 23 106t26 105l104 391q3 10 12 10h68q14 0 10 -13
l-194 -692q-3 -10 -12 -10h-73q-11 0 -12 10l-115 373q-17 56 -31 109.5t-24 101.5h-3q-11 -48 -24.5 -101t-30.5 -110l-115 -373q-3 -10 -12 -10h-73zM496 792q-6 -7 -14 -7h-52q-16 0 -7 14l105 133q4 7 13 7h70q7 0 9 -4.5t-3 -9.5z" />
    <glyph glyph-name="Wcircumflex" unicode="&#x174;" horiz-adv-x="951" 
d="M219 0q-10 0 -13 10l-193 692q-4 13 10 13h67q11 0 12 -10l104 -391q14 -52 26.5 -104.5t23.5 -106.5h2q14 54 30 112.5t31 110.5l110 368q3 10 12 10h68q9 0 12 -10l111 -368q15 -53 31 -111t30 -112h2q11 53 23 106t26 105l104 391q3 10 12 10h68q14 0 10 -13
l-194 -692q-3 -10 -12 -10h-73q-11 0 -12 10l-115 373q-17 56 -31 109.5t-24 101.5h-3q-11 -48 -24.5 -101t-30.5 -110l-115 -373q-3 -10 -12 -10h-73zM318 785q-8 0 -9.5 4.5t3.5 9.5l123 133q6 7 14 7h52q7 0 14 -7l123 -133q5 -5 3.5 -9.5t-9.5 -4.5h-59q-8 0 -14 7
l-84 86l-84 -86q-6 -7 -14 -7h-59z" />
    <glyph glyph-name="Wdieresis" unicode="&#x1e84;" horiz-adv-x="951" 
d="M409 867q0 -22 -14 -35.5t-35 -13.5q-22 0 -35.5 13.5t-13.5 35.5t13.5 36t35.5 14q21 0 35 -14t14 -36zM640 867q0 -22 -14 -35.5t-36 -13.5t-35.5 13.5t-13.5 35.5t13.5 36t35.5 14t36 -14t14 -36zM219 0q-10 0 -13 10l-193 692q-4 13 10 13h67q11 0 12 -10l104 -391
q14 -52 26.5 -104.5t23.5 -106.5h2q14 54 30 112.5t31 110.5l110 368q3 10 12 10h68q9 0 12 -10l111 -368q15 -53 31 -111t30 -112h2q11 53 23 106t26 105l104 391q3 10 12 10h68q14 0 10 -13l-194 -692q-3 -10 -12 -10h-73q-11 0 -12 10l-115 373q-17 56 -31 109.5
t-24 101.5h-3q-11 -48 -24.5 -101t-30.5 -110l-115 -373q-3 -10 -12 -10h-73z" />
    <glyph glyph-name="Wgrave" unicode="&#x1e80;" horiz-adv-x="951" 
d="M219 0q-10 0 -13 10l-193 692q-4 13 10 13h67q11 0 12 -10l104 -391q14 -52 26.5 -104.5t23.5 -106.5h2q14 54 30 112.5t31 110.5l110 368q3 10 12 10h68q9 0 12 -10l111 -368q15 -53 31 -111t30 -112h2q11 53 23 106t26 105l104 391q3 10 12 10h68q14 0 10 -13
l-194 -692q-3 -10 -12 -10h-73q-11 0 -12 10l-115 373q-17 56 -31 109.5t-24 101.5h-3q-11 -48 -24.5 -101t-30.5 -110l-115 -373q-3 -10 -12 -10h-73zM444.007 792q6 -7 13.999 -7h51.9971q15.999 0 6.99902 14l-104.993 133q-4 7 -12.999 7h-69.9961
q-6.99902 0 -8.99902 -4.5t2.99902 -9.5z" />
    <glyph glyph-name="X" unicode="X" horiz-adv-x="590" 
d="M569 14q4 -5 2 -9.5t-9 -4.5h-77q-9 0 -14 8l-175 284l-176 -284q-5 -8 -14 -8h-77q-7 0 -9.5 4.5t1.5 9.5l225 345l-214 342q-4 5 -1.5 9.5t9.5 4.5h76q8 0 13 -8l167 -279l166 279q5 8 13 8h76q6 0 8.5 -4.5t-1.5 -9.5l-213 -342z" />
    <glyph glyph-name="Y" unicode="Y" horiz-adv-x="568" 
d="M252 0q-11 0 -11 11v261l-235 429q-7 14 8 14h72q10 0 13 -8l185 -357l184 357q3 8 13 8h72q15 0 8 -14l-234 -431v-259q0 -11 -12 -11h-63z" />
    <glyph glyph-name="Yacute" unicode="&#xdd;" horiz-adv-x="568" 
d="M252 0q-11 0 -11 11v261l-235 429q-7 14 8 14h72q10 0 13 -8l185 -357l184 357q3 8 13 8h72q15 0 8 -14l-234 -431v-259q0 -11 -12 -11h-63zM298 792q-6 -7 -14 -7h-52q-16 0 -7 14l105 133q4 7 13 7h70q7 0 9 -4.5t-3 -9.5z" />
    <glyph glyph-name="Ycircumflex" unicode="&#x176;" horiz-adv-x="568" 
d="M252 0q-11 0 -11 11v261l-235 429q-7 14 8 14h72q10 0 13 -8l185 -357l184 357q3 8 13 8h72q15 0 8 -14l-234 -431v-259q0 -11 -12 -11h-63zM127 785q-8 0 -9.5 4.5t3.5 9.5l123 133q6 7 14 7h52q7 0 14 -7l123 -133q5 -5 3.5 -9.5t-9.5 -4.5h-59q-8 0 -14 7l-84 86
l-84 -86q-6 -7 -14 -7h-59z" />
    <glyph glyph-name="Ydieresis" unicode="&#x178;" horiz-adv-x="568" 
d="M252 0q-11 0 -11 11v261l-235 429q-7 14 8 14h72q10 0 13 -8l185 -357l184 357q3 8 13 8h72q15 0 8 -14l-234 -431v-259q0 -11 -12 -11h-63zM231 847q0 -22 -14 -35.5t-35 -13.5q-22 0 -35.5 13.5t-13.5 35.5t13.5 36t35.5 14q21 0 35 -14t14 -36zM435 847
q0 -22 -14 -35.5t-36 -13.5t-35.5 13.5t-13.5 35.5t13.5 36t35.5 14t36 -14t14 -36z" />
    <glyph glyph-name="Ygrave" unicode="&#x1ef2;" horiz-adv-x="568" 
d="M252 0q-11 0 -11 11v261l-235 429q-7 14 8 14h72q10 0 13 -8l185 -357l184 357q3 8 13 8h72q15 0 8 -14l-234 -431v-259q0 -11 -12 -11h-63zM259.007 792q6 -7 13.999 -7h51.9971q15.999 0 6.99902 14l-104.993 133q-4 7 -12.999 7h-69.9961q-6.99902 0 -8.99902 -4.5
t2.99902 -9.5z" />
    <glyph glyph-name="Z" unicode="Z" horiz-adv-x="588" 
d="M47 0q-11 0 -11 11v39q0 9 4 14l388 573h-364q-12 0 -12 11v56q0 11 12 11h467q11 0 11 -11v-38q0 -8 -4 -15l-387 -573h389q11 0 11 -11v-56q0 -11 -11 -11h-493z" />
    <glyph glyph-name="Zacute" unicode="&#x179;" horiz-adv-x="588" 
d="M47 0q-11 0 -11 11v39q0 9 4 14l388 573h-364q-12 0 -12 11v56q0 11 12 11h467q11 0 11 -11v-38q0 -8 -4 -15l-387 -573h389q11 0 11 -11v-56q0 -11 -11 -11h-493zM306 792q-6 -7 -14 -7h-52q-16 0 -7 14l105 133q4 7 13 7h70q7 0 9 -4.5t-3 -9.5z" />
    <glyph glyph-name="Zcaron" unicode="&#x17d;" horiz-adv-x="588" 
d="M47 0q-11 0 -11 11v39q0 9 4 14l388 573h-364q-12 0 -12 11v56q0 11 12 11h467q11 0 11 -11v-38q0 -8 -4 -15l-387 -573h389q11 0 11 -11v-56q0 -11 -11 -11h-493zM136 939.048q-8 0 -9.5 -4.5q-1.5 -4.49902 3.5 -9.49902l123 -132.992q6 -6.99902 14 -6.99902h52
q7 0 14 6.99902l123 132.992q5 5 3.5 9.49902q-1.5 4.5 -9.5 4.5h-59q-8 0 -14 -6.99902l-84 -85.9951l-84 85.9951q-6 6.99902 -14 6.99902h-59z" />
    <glyph glyph-name="Zdotaccent" unicode="&#x17b;" horiz-adv-x="588" 
d="M47 0q-11 0 -11 11v39q0 9 4 14l388 573h-364q-12 0 -12 11v56q0 11 12 11h467q11 0 11 -11v-38q0 -8 -4 -15l-387 -573h389q11 0 11 -11v-56q0 -11 -11 -11h-493zM348 852q0 -23 -16 -39t-39 -16t-39 16t-16 39t16 39t39 16t39 -16t16 -39z" />
    <glyph glyph-name="a" unicode="a" horiz-adv-x="511" 
d="M61 476q35 24 83 38t106 14q93 0 146 -48.5t53 -145.5v-300q0 -10 -9 -13q-35 -13 -85.5 -22.5t-107.5 -9.5q-42 0 -81 9t-68.5 28.5t-47.5 50.5t-18 76q0 40 15.5 69.5t44 49.5t68 30t87.5 10q31 0 62.5 -3.5t57.5 -8.5v32q0 61 -27 91.5t-93 30.5q-42 0 -79 -10.5
t-63 -26.5q-9 -6 -15 3l-29 42q-5 9 0 14zM114 153q0 -45 37.5 -68t95.5 -23q34 0 65.5 5.5t54.5 12.5v150q-24 5 -56.5 8.5t-63.5 3.5q-69 0 -101 -23.5t-32 -65.5z" />
    <glyph glyph-name="aacute" unicode="&#xe1;" horiz-adv-x="511" 
d="M61 476q35 24 83 38t106 14q93 0 146 -48.5t53 -145.5v-300q0 -10 -9 -13q-35 -13 -85.5 -22.5t-107.5 -9.5q-42 0 -81 9t-68.5 28.5t-47.5 50.5t-18 76q0 40 15.5 69.5t44 49.5t68 30t87.5 10q31 0 62.5 -3.5t57.5 -8.5v32q0 61 -27 91.5t-93 30.5q-42 0 -79 -10.5
t-63 -26.5q-9 -6 -15 3l-29 42q-5 9 0 14zM114 153q0 -45 37.5 -68t95.5 -23q34 0 65.5 5.5t54.5 12.5v150q-24 5 -56.5 8.5t-63.5 3.5q-69 0 -101 -23.5t-32 -65.5zM205 597q-7 0 -10 4t1 10l81 133q5 7 14 7h63q16 0 6 -14l-96 -133q-5 -7 -14 -7h-45z" />
    <glyph glyph-name="abreve" unicode="&#x103;" horiz-adv-x="511" 
d="M61 476q35 24 83 38t106 14q93 0 146 -48.5t53 -145.5v-300q0 -10 -9 -13q-35 -13 -85.5 -22.5t-107.5 -9.5q-42 0 -81 9t-68.5 28.5t-47.5 50.5t-18 76q0 40 15.5 69.5t44 49.5t68 30t87.5 10q31 0 62.5 -3.5t57.5 -8.5v32q0 61 -27 91.5t-93 30.5q-42 0 -79 -10.5
t-63 -26.5q-9 -6 -15 3l-29 42q-5 9 0 14zM114 153q0 -45 37.5 -68t95.5 -23q34 0 65.5 5.5t54.5 12.5v150q-24 5 -56.5 8.5t-63.5 3.5q-69 0 -101 -23.5t-32 -65.5zM405 732q-7 -60 -46.5 -97.5t-108.5 -37.5t-107 37t-46 97q-1 5 2 8.5t8 4.5l40 5q10 1 13 -9
q7 -38 29 -59t61 -21q41 0 63 21t29 59q1 10 13 9l39 -5q12 -2 11 -12z" />
    <glyph glyph-name="acircumflex" unicode="&#xe2;" horiz-adv-x="511" 
d="M61 476q35 24 83 38t106 14q93 0 146 -48.5t53 -145.5v-300q0 -10 -9 -13q-35 -13 -85.5 -22.5t-107.5 -9.5q-42 0 -81 9t-68.5 28.5t-47.5 50.5t-18 76q0 40 15.5 69.5t44 49.5t68 30t87.5 10q31 0 62.5 -3.5t57.5 -8.5v32q0 61 -27 91.5t-93 30.5q-42 0 -79 -10.5
t-63 -26.5q-9 -6 -15 3l-29 42q-5 9 0 14zM114 153q0 -45 37.5 -68t95.5 -23q34 0 65.5 5.5t54.5 12.5v150q-24 5 -56.5 8.5t-63.5 3.5q-69 0 -101 -23.5t-32 -65.5zM113 597q-8 0 -10 4t3 10l113 133q7 7 14 7h43q9 0 14 -7l112 -133q5 -6 3.5 -10t-8.5 -4h-52q-9 0 -14 7
l-76 91l-78 -91q-7 -7 -14 -7h-50z" />
    <glyph glyph-name="adieresis" unicode="&#xe4;" horiz-adv-x="511" 
d="M61 476q35 24 83 38t106 14q93 0 146 -48.5t53 -145.5v-300q0 -10 -9 -13q-35 -13 -85.5 -22.5t-107.5 -9.5q-42 0 -81 9t-68.5 28.5t-47.5 50.5t-18 76q0 40 15.5 69.5t44 49.5t68 30t87.5 10q31 0 62.5 -3.5t57.5 -8.5v32q0 61 -27 91.5t-93 30.5q-42 0 -79 -10.5
t-63 -26.5q-9 -6 -15 3l-29 42q-5 9 0 14zM114 153q0 -45 37.5 -68t95.5 -23q34 0 65.5 5.5t54.5 12.5v150q-24 5 -56.5 8.5t-63.5 3.5q-69 0 -101 -23.5t-32 -65.5zM201 662q0 -22 -13 -34.5t-34 -12.5q-20 0 -33.5 12.5t-13.5 34.5q0 23 13.5 35.5t33.5 12.5
q21 0 34 -12.5t13 -35.5zM393 662q0 -22 -13.5 -34.5t-33.5 -12.5q-21 0 -34.5 12.5t-13.5 34.5q0 23 13.5 35.5t34.5 12.5q20 0 33.5 -12.5t13.5 -35.5z" />
    <glyph glyph-name="agrave" unicode="&#xe0;" horiz-adv-x="511" 
d="M61 476q35 24 83 38t106 14q93 0 146 -48.5t53 -145.5v-300q0 -10 -9 -13q-35 -13 -85.5 -22.5t-107.5 -9.5q-42 0 -81 9t-68.5 28.5t-47.5 50.5t-18 76q0 40 15.5 69.5t44 49.5t68 30t87.5 10q31 0 62.5 -3.5t57.5 -8.5v32q0 61 -27 91.5t-93 30.5q-42 0 -79 -10.5
t-63 -26.5q-9 -6 -15 3l-29 42q-5 9 0 14zM114 153q0 -45 37.5 -68t95.5 -23q34 0 65.5 5.5t54.5 12.5v150q-24 5 -56.5 8.5t-63.5 3.5q-69 0 -101 -23.5t-32 -65.5zM294.001 597q7 0 9.99902 4q3 4 -1 10l-80.9941 133q-5 7 -14 7h-62.9961q-15.999 0 -5.99902 -14
l95.9941 -133q4.99902 -7 13.999 -7h44.9971z" />
    <glyph glyph-name="amacron" unicode="&#x101;" horiz-adv-x="511" 
d="M61 476q35 24 83 38t106 14q93 0 146 -48.5t53 -145.5v-300q0 -10 -9 -13q-35 -13 -85.5 -22.5t-107.5 -9.5q-42 0 -81 9t-68.5 28.5t-47.5 50.5t-18 76q0 40 15.5 69.5t44 49.5t68 30t87.5 10q31 0 62.5 -3.5t57.5 -8.5v32q0 61 -27 91.5t-93 30.5q-42 0 -79 -10.5
t-63 -26.5q-9 -6 -15 3l-29 42q-5 9 0 14zM114 153q0 -45 37.5 -68t95.5 -23q34 0 65.5 5.5t54.5 12.5v150q-24 5 -56.5 8.5t-63.5 3.5q-69 0 -101 -23.5t-32 -65.5zM118 674q0 12 11 12h252q11 0 11 -12v-43q0 -11 -11 -11h-252q-11 0 -11 11v43z" />
    <glyph glyph-name="aogonek" unicode="&#x105;" horiz-adv-x="512" 
d="M449 36q0 -10 -9 -14q-51 -22 -83.5 -55.5t-32.5 -61.5q0 -17 10 -25t33 -8q10 0 22 1.5t25 6.5q11 5 14 -8l9 -39q3 -10 -7 -14q-17 -8 -37.5 -13t-43.5 -5q-45 0 -69 20t-24 62q0 27 20 59t55 56q-39 -9 -85 -9q-42 0 -80.5 8.5t-68 28t-47.5 51t-18 78.5
q0 39 15.5 68.5t44 49t67.5 29.5t87 10q32 0 63.5 -3.5t57.5 -8.5v37q0 57 -27.5 87t-93.5 30q-43 0 -79.5 -10.5t-62.5 -26.5q-9 -6 -15 3l-29 42q-6 10 3 16q35 23 81.5 36.5t105.5 13.5q92 0 145.5 -47.5t53.5 -140.5v-304zM114 155q0 -48 36.5 -70.5t95.5 -22.5
q34 0 66 5t55 12v153q-24 5 -56.5 7.5t-64.5 2.5q-69 0 -100.5 -23t-31.5 -64z" />
    <glyph glyph-name="aring" unicode="&#xe5;" horiz-adv-x="511" 
d="M61 476q35 24 83 38t106 14q93 0 146 -48.5t53 -145.5v-300q0 -10 -9 -13q-35 -13 -85.5 -22.5t-107.5 -9.5q-42 0 -81 9t-68.5 28.5t-47.5 50.5t-18 76q0 40 15.5 69.5t44 49.5t68 30t87.5 10q31 0 62.5 -3.5t57.5 -8.5v32q0 61 -27 91.5t-93 30.5q-42 0 -79 -10.5
t-63 -26.5q-9 -6 -15 3l-29 42q-5 9 0 14zM114 153q0 -45 37.5 -68t95.5 -23q34 0 65.5 5.5t54.5 12.5v150q-24 5 -56.5 8.5t-63.5 3.5q-69 0 -101 -23.5t-32 -65.5zM359 685q0 -48 -30 -75t-75 -27q-48 0 -78.5 27.5t-30.5 75.5q0 47 30.5 74.5t78.5 27.5q45 0 75 -27.5
t30 -75.5zM195 685q0 -24 16 -39t42 -15q25 0 40.5 15t15.5 39q0 25 -15.5 40t-40.5 15q-26 0 -42 -15t-16 -40z" />
    <glyph glyph-name="atilde" unicode="&#xe3;" horiz-adv-x="511" 
d="M61 476q35 24 83 38t106 14q93 0 146 -48.5t53 -145.5v-300q0 -10 -9 -13q-35 -13 -85.5 -22.5t-107.5 -9.5q-42 0 -81 9t-68.5 28.5t-47.5 50.5t-18 76q0 40 15.5 69.5t44 49.5t68 30t87.5 10q31 0 62.5 -3.5t57.5 -8.5v32q0 61 -27 91.5t-93 30.5q-42 0 -79 -10.5
t-63 -26.5q-9 -6 -15 3l-29 42q-5 9 0 14zM114 153q0 -45 37.5 -68t95.5 -23q34 0 65.5 5.5t54.5 12.5v150q-24 5 -56.5 8.5t-63.5 3.5q-69 0 -101 -23.5t-32 -65.5zM408 680q-4 -12 -11.5 -25t-18.5 -23.5t-25 -17.5t-30 -7q-17 0 -35.5 7.5t-35.5 16.5t-31.5 16.5
t-28.5 7.5q-16 0 -25.5 -10t-15.5 -24q-4 -7 -8 -7t-8 2l-33 19q-10 6 -5 15q4 12 12 24t18.5 22.5t24 17t29.5 6.5q19 0 37.5 -7.5t35.5 -17.5q14 -8 30.5 -15.5t30.5 -7.5t22 8.5t17 25.5q5 11 15 5l33 -18q9 -5 6 -13z" />
    <glyph glyph-name="ae" unicode="&#xe6;" horiz-adv-x="820" 
d="M564 -11q-48 0 -83.5 15.5t-59.5 36.5q-30 -22 -77 -37t-101 -15q-40 0 -78 10t-67.5 30t-47.5 51t-18 73q0 39 16 68.5t44 49t66 29t83 9.5q31 0 62.5 -3t57.5 -7v46q0 55 -31 81.5t-88 26.5q-42 0 -78 -10.5t-65 -26.5q-10 -4 -16 4l-24 40q-5 10 3 16q34 22 81 36.5
t101 14.5q57 0 95 -20t66 -58q28 38 70.5 58t96.5 20q39 0 75.5 -11.5t64.5 -35t45 -58.5t17 -83v-101q0 -12 -12 -12h-320v-50q0 -57 33 -84.5t90 -27.5q47 0 85 15t67 41q9 7 16 -1l31 -40q7 -9 -1 -15q-35 -34 -87 -54.5t-112 -20.5zM115 154q0 -23 10 -40t27.5 -28.5
t40 -17.5t48.5 -6q39 0 75 11.5t59 25.5q-8 17 -11 35.5t-3 35.5v61q-24 4 -54 7t-59 3q-68 0 -100.5 -23t-32.5 -64zM442 293h253v40q0 60 -36 90t-90 30t-90.5 -29.5t-36.5 -92.5v-38z" />
    <glyph glyph-name="b" unicode="b" horiz-adv-x="543" 
d="M150 497q26 14 58.5 22.5t67.5 8.5q48 0 87.5 -14.5t68.5 -41.5t45 -66.5t16 -89.5v-111q0 -57 -16.5 -97.5t-46 -67t-70.5 -39t-90 -12.5q-48 0 -99 9t-94 26q-9 4 -9 13v667q0 11 11 11h59q12 0 12 -11v-207zM268 62q67 0 104.5 32.5t37.5 110.5v111q0 72 -36.5 105.5
t-104.5 33.5q-35 0 -65 -9.5t-54 -26.5v-338q23 -9 54.5 -14t63.5 -5z" />
    <glyph glyph-name="c" unicode="c" horiz-adv-x="470" 
d="M442 47q-39 -29 -81.5 -43.5t-95.5 -14.5q-50 0 -89.5 14.5t-67.5 40t-42.5 61t-14.5 77.5v152q0 43 15 78.5t42.5 61t67 40t88.5 14.5q87 0 163 -50q10 -7 3 -17l-26 -41q-7 -9 -16 -3q-57 37 -122 37t-99 -33t-34 -87v-152q0 -54 34.5 -87t97.5 -33q69 0 134 44
q9 8 16 -2l29 -41q7 -10 -2 -16z" />
    <glyph glyph-name="cacute" unicode="&#x107;" horiz-adv-x="470" 
d="M442 47q-39 -29 -81.5 -43.5t-95.5 -14.5q-50 0 -89.5 14.5t-67.5 40t-42.5 61t-14.5 77.5v152q0 43 15 78.5t42.5 61t67 40t88.5 14.5q87 0 163 -50q10 -7 3 -17l-26 -41q-7 -9 -16 -3q-57 37 -122 37t-99 -33t-34 -87v-152q0 -54 34.5 -87t97.5 -33q69 0 134 44
q9 8 16 -2l29 -41q7 -10 -2 -16zM203 597q-7 0 -10 4t1 10l81 133q5 7 14 7h63q16 0 6 -14l-96 -133q-5 -7 -14 -7h-45z" />
    <glyph glyph-name="ccaron" unicode="&#x10d;" horiz-adv-x="470" 
d="M442 47q-39 -29 -81.5 -43.5t-95.5 -14.5q-50 0 -89.5 14.5t-67.5 40t-42.5 61t-14.5 77.5v152q0 43 15 78.5t42.5 61t67 40t88.5 14.5q87 0 163 -50q10 -7 3 -17l-26 -41q-7 -9 -16 -3q-57 37 -122 37t-99 -33t-34 -87v-152q0 -54 34.5 -87t97.5 -33q69 0 134 44
q9 8 16 -2l29 -41q7 -10 -2 -16zM168 751q7 0 14 -7l78 -91l76 91q5 7 14 7h52q7 0 8.5 -4t-3.5 -10l-112 -133q-5 -7 -14 -7h-43q-7 0 -14 7l-113 133q-5 6 -3 10t10 4h50z" />
    <glyph glyph-name="ccedilla" unicode="&#xe7;" horiz-adv-x="470" 
d="M442 47q-35 -26 -73 -40.5t-83 -16.5l-16 -40q39 -2 62.5 -21t23.5 -51q0 -41 -32 -62t-84 -21q-31 0 -58 9q-9 3 -9 13v24q0 12 13 10q12 -4 23.5 -5.5t21.5 -1.5q25 0 42.5 8.5t17.5 30.5q0 17 -15 26.5t-48 10.5q-10 0 -14 8q-2 4 1 11l21 52q-44 4 -78 19.5t-58 40.5
t-36.5 58.5t-12.5 72.5v152q0 43 15 78.5t42.5 61t67 40t88.5 14.5q87 0 163 -50q10 -7 3 -17l-26 -41q-7 -9 -16 -3q-57 37 -122 37t-99 -33t-34 -87v-152q0 -54 34.5 -87t97.5 -33q69 0 134 44q9 8 16 -2l29 -41q7 -10 -2 -16z" />
    <glyph glyph-name="cdotaccent" unicode="&#x10b;" horiz-adv-x="470" 
d="M442 47q-39 -29 -81.5 -43.5t-95.5 -14.5q-50 0 -89.5 14.5t-67.5 40t-42.5 61t-14.5 77.5v152q0 43 15 78.5t42.5 61t67 40t88.5 14.5q87 0 163 -50q10 -7 3 -17l-26 -41q-7 -9 -16 -3q-57 37 -122 37t-99 -33t-34 -87v-152q0 -54 34.5 -87t97.5 -33q69 0 134 44
q9 8 16 -2l29 -41q7 -10 -2 -16zM305 662q0 -21 -14 -35.5t-36 -14.5q-21 0 -35.5 14.5t-14.5 35.5q0 22 14.5 36t35.5 14q22 0 36 -14t14 -36z" />
    <glyph glyph-name="d" unicode="d" horiz-adv-x="543" 
d="M393 704q0 11 12 11h59q11 0 11 -11v-667q0 -9 -9 -13q-43 -17 -94 -26t-99 -9q-49 0 -90 12.5t-70.5 39t-46 67t-16.5 97.5v111q0 50 16 89.5t45 66.5t68.5 41.5t87.5 14.5q35 0 67.5 -8.5t58.5 -22.5v207zM133 205q0 -79 37.5 -111.5t104.5 -32.5q32 0 63.5 5t54.5 14
v339q-24 17 -54 26.5t-65 9.5q-68 0 -104.5 -33.5t-36.5 -105.5v-111z" />
    <glyph glyph-name="eth" unicode="&#xf0;" horiz-adv-x="550" 
d="M381 641q48 -45 77 -111.5t30 -159.5v-185q0 -44 -15 -80t-43.5 -62t-69 -40t-91.5 -14t-91.5 14t-69 40t-43.5 62t-15 80v114q0 44 15.5 80t43 62t67 40.5t87.5 14.5q47 0 84 -15.5t61 -41.5q-5 51 -29 90.5t-59 67.5l-97 -71q-9 -6 -16 3l-16 22q-6 8 3 16l81 60
q-29 15 -60.5 24t-63.5 12q-13 0 -11 12v47q2 11 12 11q51 -4 98 -18.5t88 -40.5l72 53q10 7 17 -3l16 -22q6 -9 -3 -17zM133 185q0 -57 34.5 -90t101.5 -33t101.5 33t35.5 90v114q1 58 -34.5 91.5t-102.5 33.5t-101.5 -34t-34.5 -91v-114z" />
    <glyph glyph-name="dcaron" unicode="&#x10f;" horiz-adv-x="563" 
d="M267 528q35 0 67.5 -8.5t58.5 -22.5v207q0 11 12 11h59q11 0 11 -11v-667q0 -9 -9 -13q-43 -17 -94 -26t-99 -9q-49 0 -90 12.5t-70.5 39t-46 67t-16.5 97.5v111q0 50 16 89.5t45 66.5t68.5 41.5t87.5 14.5zM557 705q2 10 13 10h51q12 0 9 -13l-49 -145q-3 -9 -13 -9h-36
q-12 0 -10 12zM133 205q0 -79 37.5 -111.5t104.5 -32.5q32 0 63.5 5t54.5 14v339q-24 17 -54 26.5t-65 9.5q-68 0 -104.5 -33.5t-36.5 -105.5v-111z" />
    <glyph glyph-name="dcroat" unicode="&#x111;" horiz-adv-x="543" 
d="M543 643q12 0 12 -12v-34q0 -11 -12 -11h-68v-549q0 -9 -9 -13q-43 -17 -94 -26t-99 -9q-49 0 -90 12.5t-70.5 39t-46 67t-16.5 97.5v99q0 51 16 90.5t45 66.5t68.5 41.5t87.5 14.5q35 0 67.5 -9t58.5 -23v101h-139q-11 0 -11 11v34q0 12 11 12h139v61q0 11 12 11h59
q11 0 11 -11v-61h68zM133 205q0 -79 37.5 -111.5t104.5 -32.5q32 0 63.5 5t54.5 14v327q-24 17 -54 26.5t-65 9.5q-68 0 -104.5 -33t-36.5 -106v-99z" />
    <glyph glyph-name="e" unicode="e" horiz-adv-x="518" 
d="M472 231q0 -12 -11 -12h-327v-42q0 -57 37 -86t93 -29q52 0 88.5 17t64.5 39q10 6 16 -3l29 -38q7 -8 -2 -16q-38 -32 -86.5 -52t-111.5 -20q-41 0 -79 11.5t-67 35t-47 59t-18 82.5v152q0 51 17.5 88.5t47 62t68 36.5t79.5 12t78.5 -12t66.5 -36.5t46.5 -62t17.5 -88.5
v-98zM392 329q0 64 -37 94.5t-92 30.5q-57 0 -93 -30t-36 -95v-42h258v42z" />
    <glyph glyph-name="eacute" unicode="&#xe9;" horiz-adv-x="518" 
d="M472 231q0 -12 -11 -12h-327v-42q0 -57 37 -86t93 -29q52 0 88.5 17t64.5 39q10 6 16 -3l29 -38q7 -8 -2 -16q-38 -32 -86.5 -52t-111.5 -20q-41 0 -79 11.5t-67 35t-47 59t-18 82.5v152q0 51 17.5 88.5t47 62t68 36.5t79.5 12t78.5 -12t66.5 -36.5t46.5 -62t17.5 -88.5
v-98zM392 329q0 64 -37 94.5t-92 30.5q-57 0 -93 -30t-36 -95v-42h258v42zM209 597q-7 0 -10 4t1 10l81 133q5 7 14 7h63q16 0 6 -14l-96 -133q-5 -7 -14 -7h-45z" />
    <glyph glyph-name="ecaron" unicode="&#x11b;" horiz-adv-x="518" 
d="M472 231q0 -12 -11 -12h-327v-42q0 -57 37 -86t93 -29q52 0 88.5 17t64.5 39q10 6 16 -3l29 -38q7 -8 -2 -16q-38 -32 -86.5 -52t-111.5 -20q-41 0 -79 11.5t-67 35t-47 59t-18 82.5v152q0 51 17.5 88.5t47 62t68 36.5t79.5 12t78.5 -12t66.5 -36.5t46.5 -62t17.5 -88.5
v-98zM392 329q0 64 -37 94.5t-92 30.5q-57 0 -93 -30t-36 -95v-42h258v42zM174 751q7 0 14 -7l78 -91l76 91q5 7 14 7h52q7 0 8.5 -4t-3.5 -10l-112 -133q-5 -7 -14 -7h-43q-7 0 -14 7l-113 133q-5 6 -3 10t10 4h50z" />
    <glyph glyph-name="ecircumflex" unicode="&#xea;" horiz-adv-x="518" 
d="M472 231q0 -12 -11 -12h-327v-42q0 -57 37 -86t93 -29q52 0 88.5 17t64.5 39q10 6 16 -3l29 -38q7 -8 -2 -16q-38 -32 -86.5 -52t-111.5 -20q-41 0 -79 11.5t-67 35t-47 59t-18 82.5v152q0 51 17.5 88.5t47 62t68 36.5t79.5 12t78.5 -12t66.5 -36.5t46.5 -62t17.5 -88.5
v-98zM392 329q0 64 -37 94.5t-92 30.5q-57 0 -93 -30t-36 -95v-42h258v42zM121 597q-8 0 -10 4t3 10l113 133q7 7 14 7h43q9 0 14 -7l112 -133q5 -6 3.5 -10t-8.5 -4h-52q-9 0 -14 7l-76 91l-78 -91q-7 -7 -14 -7h-50z" />
    <glyph glyph-name="edieresis" unicode="&#xeb;" horiz-adv-x="518" 
d="M472 231q0 -12 -11 -12h-327v-42q0 -57 37 -86t93 -29q52 0 88.5 17t64.5 39q10 6 16 -3l29 -38q7 -8 -2 -16q-38 -32 -86.5 -52t-111.5 -20q-41 0 -79 11.5t-67 35t-47 59t-18 82.5v152q0 51 17.5 88.5t47 62t68 36.5t79.5 12t78.5 -12t66.5 -36.5t46.5 -62t17.5 -88.5
v-98zM392 329q0 64 -37 94.5t-92 30.5q-57 0 -93 -30t-36 -95v-42h258v42zM212 662q0 -22 -13 -34.5t-34 -12.5q-20 0 -33.5 12.5t-13.5 34.5q0 23 13.5 35.5t33.5 12.5q21 0 34 -12.5t13 -35.5zM404 662q0 -22 -13.5 -34.5t-33.5 -12.5q-21 0 -34.5 12.5t-13.5 34.5
q0 23 13.5 35.5t34.5 12.5q20 0 33.5 -12.5t13.5 -35.5z" />
    <glyph glyph-name="edotaccent" unicode="&#x117;" horiz-adv-x="518" 
d="M472 231q0 -12 -11 -12h-327v-42q0 -57 37 -86t93 -29q52 0 88.5 17t64.5 39q10 6 16 -3l29 -38q7 -8 -2 -16q-38 -32 -86.5 -52t-111.5 -20q-41 0 -79 11.5t-67 35t-47 59t-18 82.5v152q0 51 17.5 88.5t47 62t68 36.5t79.5 12t78.5 -12t66.5 -36.5t46.5 -62t17.5 -88.5
v-98zM392 329q0 64 -37 94.5t-92 30.5q-57 0 -93 -30t-36 -95v-42h258v42zM311 662q0 -21 -14 -35.5t-36 -14.5q-21 0 -35.5 14.5t-14.5 35.5q0 22 14.5 36t35.5 14q22 0 36 -14t14 -36z" />
    <glyph glyph-name="egrave" unicode="&#xe8;" horiz-adv-x="518" 
d="M472 231q0 -12 -11 -12h-327v-42q0 -57 37 -86t93 -29q52 0 88.5 17t64.5 39q10 6 16 -3l29 -38q7 -8 -2 -16q-38 -32 -86.5 -52t-111.5 -20q-41 0 -79 11.5t-67 35t-47 59t-18 82.5v152q0 51 17.5 88.5t47 62t68 36.5t79.5 12t78.5 -12t66.5 -36.5t46.5 -62t17.5 -88.5
v-98zM392 329q0 64 -37 94.5t-92 30.5q-57 0 -93 -30t-36 -95v-42h258v42zM305.001 597q7 0 9.99902 4q3 4 -1 10l-80.9941 133q-5 7 -14 7h-62.9961q-15.999 0 -5.99902 -14l95.9941 -133q4.99902 -7 13.999 -7h44.9971z" />
    <glyph glyph-name="emacron" unicode="&#x113;" horiz-adv-x="518" 
d="M472 231q0 -12 -11 -12h-327v-42q0 -57 37 -86t93 -29q52 0 88.5 17t64.5 39q10 6 16 -3l29 -38q7 -8 -2 -16q-38 -32 -86.5 -52t-111.5 -20q-41 0 -79 11.5t-67 35t-47 59t-18 82.5v152q0 51 17.5 88.5t47 62t68 36.5t79.5 12t78.5 -12t66.5 -36.5t46.5 -62t17.5 -88.5
v-98zM392 329q0 64 -37 94.5t-92 30.5q-57 0 -93 -30t-36 -95v-42h258v42zM124 674q0 12 11 12h252q11 0 11 -12v-43q0 -11 -11 -11h-252q-11 0 -11 11v43z" />
    <glyph glyph-name="eogonek" unicode="&#x119;" horiz-adv-x="515" 
d="M406 -179q-39 -22 -85 -22q-42 0 -66.5 20t-24.5 61q0 30 18 58.5t50 55.5q-8 -3 -17 -4t-16 -1q-42 0 -80.5 11.5t-68 35t-47.5 58.5t-18 82v157q0 50 17.5 87t47 61t67.5 35.5t79 11.5t78.5 -11.5t66 -35.5t45.5 -61t17 -87v-102q0 -11 -11 -11h-324v-43q0 -57 36 -86
t93 -29q47 0 86 16t65 39q8 7 16 -2l29 -38q6 -10 -1 -16q-14 -11 -31.5 -22.5t-37.5 -23.5q-44 -29 -67 -59t-23 -51q0 -35 38 -35q23 0 44 11q10 5 15 -6l15 -40q5 -9 -5 -14zM134 288h257v45q0 31 -10.5 54t-28.5 38t-42 22.5t-51 7.5t-49.5 -7t-39.5 -22t-26.5 -38.5
t-9.5 -56.5v-43z" />
    <glyph glyph-name="f" unicode="f" horiz-adv-x="317" 
d="M298 651q-11 2 -24.5 2.5t-25.5 0.5q-48 0 -72.5 -29t-24.5 -80v-33h138q11 0 11 -11v-50q0 -12 -11 -12h-138v-428q0 -11 -12 -11h-59q-11 0 -11 11v533q0 45 13 79t35.5 57t53 34.5t66.5 11.5q15 0 30.5 -0.5t29.5 -2.5q11 -1 11 -13v-48q0 -11 -10 -11z" />
    <glyph glyph-name="g" unicode="g" horiz-adv-x="543" 
d="M475 14q0 -49 -12 -88.5t-37.5 -67.5t-65.5 -43t-96 -15q-60 0 -106.5 18t-86.5 51q-7 6 -1 16l29 43q7 10 16 2q31 -25 67.5 -40.5t81.5 -15.5q68 0 99.5 35t29.5 112v24q-28 -14 -62 -21.5t-66 -7.5q-45 0 -84 12.5t-68.5 37.5t-46 63.5t-16.5 90.5v100q0 57 17.5 96.5
t47.5 64t71 36t88 11.5q53 0 103 -11t89 -28q9 -3 9 -13v-462zM133 220q0 -36 10.5 -61t29 -40t43.5 -22t55 -7q34 0 67.5 8t54.5 22v317q-22 8 -56 12.5t-62 4.5q-65 0 -103.5 -30t-38.5 -104v-100z" />
    <glyph glyph-name="gbreve" unicode="&#x11f;" horiz-adv-x="543" 
d="M475 14q0 -49 -12 -88.5t-37.5 -67.5t-65.5 -43t-96 -15q-60 0 -106.5 18t-86.5 51q-7 6 -1 16l29 43q7 10 16 2q31 -25 67.5 -40.5t81.5 -15.5q68 0 99.5 35t29.5 112v24q-28 -14 -62 -21.5t-66 -7.5q-45 0 -84 12.5t-68.5 37.5t-46 63.5t-16.5 90.5v100q0 57 17.5 96.5
t47.5 64t71 36t88 11.5q53 0 103 -11t89 -28q9 -3 9 -13v-462zM133 220q0 -36 10.5 -61t29 -40t43.5 -22t55 -7q34 0 67.5 8t54.5 22v317q-22 8 -56 12.5t-62 4.5q-65 0 -103.5 -30t-38.5 -104v-100zM427 732q-7 -60 -46.5 -97.5t-108.5 -37.5t-107 37t-46 97q-1 5 2 8.5
t8 4.5l40 5q10 1 13 -9q7 -38 29 -59t61 -21q41 0 63 21t29 59q1 10 13 9l39 -5q12 -2 11 -12z" />
    <glyph glyph-name="uni0123" unicode="&#x123;" horiz-adv-x="543" 
d="M475 14q0 -49 -12 -88.5t-37.5 -67.5t-65.5 -43t-96 -15q-60 0 -106.5 18t-86.5 51q-7 6 -1 16l29 43q7 10 16 2q31 -25 67.5 -40.5t81.5 -15.5q68 0 99.5 35t29.5 112v24q-28 -14 -62 -21.5t-66 -7.5q-45 0 -84 12.5t-68.5 37.5t-46 63.5t-16.5 90.5v100q0 57 17.5 96.5
t47.5 64t71 36t88 11.5q53 0 103 -11t89 -28q9 -3 9 -13v-462zM133 220q0 -36 10.5 -61t29 -40t43.5 -22t55 -7q34 0 67.5 8t54.5 22v317q-22 8 -56 12.5t-62 4.5q-65 0 -103.5 -30t-38.5 -104v-100zM230 597q-6 0 -9 4t0 9l55 137q3 9 13 9h38q14 0 9 -13l-39 -136
q-3 -10 -12 -10h-55z" />
    <glyph glyph-name="gdotaccent" unicode="&#x121;" horiz-adv-x="543" 
d="M475 14q0 -49 -12 -88.5t-37.5 -67.5t-65.5 -43t-96 -15q-60 0 -106.5 18t-86.5 51q-7 6 -1 16l29 43q7 10 16 2q31 -25 67.5 -40.5t81.5 -15.5q68 0 99.5 35t29.5 112v24q-28 -14 -62 -21.5t-66 -7.5q-45 0 -84 12.5t-68.5 37.5t-46 63.5t-16.5 90.5v100q0 57 17.5 96.5
t47.5 64t71 36t88 11.5q53 0 103 -11t89 -28q9 -3 9 -13v-462zM133 220q0 -36 10.5 -61t29 -40t43.5 -22t55 -7q34 0 67.5 8t54.5 22v317q-22 8 -56 12.5t-62 4.5q-65 0 -103.5 -30t-38.5 -104v-100zM322 662q0 -21 -14 -35.5t-36 -14.5q-21 0 -35.5 14.5t-14.5 35.5
q0 22 14.5 36t35.5 14q22 0 36 -14t14 -36z" />
    <glyph glyph-name="h" unicode="h" horiz-adv-x="558" 
d="M151 503q26 11 57.5 18t67.5 7q46 0 86 -12.5t69.5 -38.5t46 -67.5t16.5 -99.5v-299q0 -11 -12 -11h-59q-11 0 -11 11v296q0 81 -36.5 114t-104.5 33q-33 0 -64.5 -7t-55.5 -19v-417q0 -11 -12 -11h-59q-11 0 -11 11v693q0 11 11 11h59q12 0 12 -11v-201v0z" />
    <glyph glyph-name="hbar" unicode="&#x127;" horiz-adv-x="558" 
d="M151 491q27 11 58.5 18t67.5 7q46 0 86 -12.5t69 -38.5t45.5 -67.5t16.5 -99.5v-287q0 -11 -11 -11h-59q-12 0 -12 11v284q0 81 -36.5 114t-103.5 33q-34 0 -65 -7.5t-56 -18.5v-405q0 -11 -11 -11h-59q-12 0 -12 11v575h-68q-11 0 -11 11v34q0 12 11 12h68v61
q0 11 12 11h59q11 0 11 -11v-61h140q11 0 11 -12v-34q0 -11 -11 -11h-140v-95v0z" />
    <glyph glyph-name="i" unicode="i" horiz-adv-x="220" 
d="M81 0q-12 0 -12 11v494q0 12 12 12h59q11 0 11 -12v-494q0 -11 -11 -11h-59zM160 662q0 -21 -14 -35t-35 -14t-35.5 14t-14.5 35q0 22 14.5 35.5t35.5 13.5t35 -13.5t14 -35.5z" />
    <glyph glyph-name="dotlessi" unicode="&#x131;" horiz-adv-x="220" 
d="M80 0q-11 0 -11 11v494q0 12 11 12h59q12 0 12 -12v-494q0 -11 -12 -11h-59z" />
    <glyph glyph-name="iacute" unicode="&#xed;" horiz-adv-x="220" 
d="M80 0q-11 0 -11 11v494q0 12 11 12h59q12 0 12 -12v-494q0 -11 -12 -11h-59zM66 597q-7 0 -10 4t1 10l81 133q5 7 14 7h63q16 0 6 -14l-96 -133q-5 -7 -14 -7h-45z" />
    <glyph glyph-name="icircumflex" unicode="&#xee;" horiz-adv-x="220" 
d="M80 0q-11 0 -11 11v494q0 12 11 12h59q12 0 12 -12v-494q0 -11 -12 -11h-59zM-13 597q-7 0 -9 4.5t1 9.5l95 133q5 7 14 7h44q7 0 14 -7l95 -133q4 -5 2 -9.5t-9 -4.5h-50q-9 0 -14 7l-60 93l-60 -92q-5 -8 -14 -8h-49z" />
    <glyph glyph-name="idieresis" unicode="&#xef;" horiz-adv-x="220" 
d="M80 0q-11 0 -11 11v494q0 12 11 12h59q12 0 12 -12v-494q0 -11 -12 -11h-59zM86 662q0 -20 -13 -33t-33 -13t-33 13t-13 33t13 33.5t33 13.5t33 -13.5t13 -33.5zM225 662q0 -20 -13.5 -33t-33.5 -13t-33 13t-13 33t13 33.5t33 13.5t33.5 -13.5t13.5 -33.5z" />
    <glyph glyph-name="idotaccent" horiz-adv-x="220" 
d="M80 0q-11 0 -11 11v494q0 12 11 12h59q12 0 12 -12v-494q0 -11 -12 -11h-59zM160 662q0 -21 -14 -35.5t-36 -14.5q-21 0 -35.5 14.5t-14.5 35.5q0 22 14.5 36t35.5 14q22 0 36 -14t14 -36z" />
    <glyph glyph-name="igrave" unicode="&#xec;" horiz-adv-x="220" 
d="M80 0q-11 0 -11 11v494q0 12 11 12h59q12 0 12 -12v-494q0 -11 -12 -11h-59zM151.001 597q7 0 9.99902 4q3 4 -1 10l-80.9941 133q-5 7 -14 7h-62.9961q-15.999 0 -5.99902 -14l95.9941 -133q4.99902 -7 13.999 -7h44.9971z" />
    <glyph glyph-name="ij" unicode="&#x133;" horiz-adv-x="500" 
d="M81 0q-12 0 -12 11v494q0 12 12 12h59q11 0 11 -12v-494q0 -11 -11 -11h-59zM160 662q0 -21 -14 -35t-35 -14t-35.5 14t-14.5 35q0 22 14.5 35.5t35.5 13.5t35 -13.5t14 -35.5zM431 -17q0 -91 -39 -137.5t-111 -46.5q-27 0 -49 3q-11 1 -11 13v50q0 12 12 12q21 -3 39 -3
q38 0 57.5 24.5t19.5 84.5v522q0 12 12 12h59q11 0 11 -12v-522zM440 662q0 -21 -14 -35t-35 -14t-35.5 14t-14.5 35q0 22 14.5 35.5t35.5 13.5t35 -13.5t14 -35.5z" />
    <glyph glyph-name="imacron" unicode="&#x12b;" horiz-adv-x="220" 
d="M14 618q-11 0 -11 12v43q0 11 11 11h193q11 0 11 -11v-43q0 -12 -11 -12h-193zM81 0q-12 0 -12 11v494q0 12 12 12h59q11 0 11 -12v-494q0 -11 -11 -11h-59z" />
    <glyph glyph-name="iogonek" unicode="&#x12f;" horiz-adv-x="220" 
d="M202 -179q-40 -20 -89 -20q-46 0 -72 22t-26 68q0 29 19 58t48 52h-3q-10 2 -10 12v492q0 12 12 12h59q11 0 11 -12v-494q0 -11 -11 -12q-30 -23 -43.5 -46t-13.5 -42q0 -39 46 -39q10 0 25 2.5t30 8.5q12 5 13 -7l11 -40q3 -11 -6 -15zM160 662q0 -21 -14 -35t-35 -14
t-35.5 14t-14.5 35q0 22 14.5 36t35.5 14t35 -14t14 -36z" />
    <glyph glyph-name="j" unicode="j" horiz-adv-x="228" 
d="M159 -17q0 -91 -39 -137.5t-111 -46.5q-27 0 -49 3q-11 1 -11 13v50q0 12 12 12q21 -3 39 -3q38 0 57.5 24.5t19.5 84.5v522q0 12 12 12h59q11 0 11 -12v-522zM168 662q0 -21 -14 -35t-35 -14t-35.5 14t-14.5 35q0 22 14.5 35.5t35.5 13.5t35 -13.5t14 -35.5z" />
    <glyph glyph-name="uni0237" unicode="&#x237;" horiz-adv-x="228" 
d="M159 -17q0 -91 -39 -137.5t-111 -46.5q-12 0 -25 0.5t-24 2.5q-11 1 -11 13v50q0 12 12 12q21 -3 39 -3q38 0 57.5 24t19.5 84v523q0 12 12 12h59q11 0 11 -12v-522v0z" />
    <glyph glyph-name="k" unicode="k" horiz-adv-x="495" 
d="M407 0q-9 0 -15 7l-190 231l-51 -49v-178q0 -11 -12 -11h-59q-11 0 -11 11v693q0 11 11 11h59q12 0 12 -11v-414l226 221q5 6 14 6h73q7 0 8.5 -4.5t-3.5 -9.5l-212 -209l230 -280q10 -14 -6 -14h-74z" />
    <glyph glyph-name="uni0137" unicode="&#x137;" horiz-adv-x="495" 
d="M407 0q-9 0 -15 7l-190 231l-51 -49v-178q0 -11 -12 -11h-59q-11 0 -11 11v693q0 11 11 11h59q12 0 12 -11v-414l226 221q5 6 14 6h73q7 0 8.5 -4.5t-3.5 -9.5l-212 -209l230 -280q10 -14 -6 -14h-74zM207 -236q-13 0 -10 12l34 139q3 10 13 10h51q12 0 9 -13l-48 -139
q-3 -9 -13 -9h-36z" />
    <glyph glyph-name="l" unicode="l" horiz-adv-x="290" 
d="M273 -8q-13 -2 -27.5 -2.5t-28.5 -0.5q-72 0 -111.5 46.5t-39.5 137.5v531q0 11 12 11h59q11 0 11 -11v-532q0 -59 20 -83.5t58 -24.5q9 0 21 0.5t24 2.5q12 0 12 -11v-51q0 -11 -10 -13z" />
    <glyph glyph-name="lacute" unicode="&#x13a;" horiz-adv-x="290" 
d="M273 -8q-13 -2 -27.5 -2.5t-28.5 -0.5q-72 0 -111.5 46.5t-39.5 137.5v531q0 11 12 11h59q11 0 11 -11v-532q0 -59 20 -83.5t58 -24.5q9 0 21 0.5t24 2.5q12 0 12 -11v-51q0 -11 -10 -13zM141 792q-6 -7 -14 -7h-52q-16 0 -7 14l105 133q4 7 13 7h70q7 0 9 -4.5t-3 -9.5z
" />
    <glyph glyph-name="lcaron" unicode="&#x13e;" horiz-adv-x="303" 
d="M269 -8q-26 -3 -52 -3q-73 0 -112 46.5t-39 137.5v531q0 11 11 11h59q12 0 12 -11v-532q0 -59 19.5 -83.5t57.5 -24.5q20 0 41 3q13 0 13 -11v-51q0 -11 -10 -13zM222 556q-14 0 -10 13l36 136q3 10 13 10h51q6 0 8.5 -4t0.5 -9l-49 -137q-4 -9 -12 -9h-38z" />
    <glyph glyph-name="uni013C" unicode="&#x13c;" horiz-adv-x="290" 
d="M273 -8q-13 -2 -27.5 -2.5t-28.5 -0.5q-72 0 -111.5 46.5t-39.5 137.5v531q0 11 12 11h59q11 0 11 -11v-532q0 -59 20 -83.5t58 -24.5q9 0 21 0.5t24 2.5q12 0 12 -11v-51q0 -11 -10 -13zM136 -236q-13 0 -10 12l34 139q3 10 13 10h51q12 0 9 -13l-48 -139q-3 -9 -13 -9
h-36z" />
    <glyph glyph-name="ldot" unicode="&#x140;" horiz-adv-x="314" 
d="M269 -8q-26 -3 -52 -3q-73 0 -112 46.5t-39 137.5v531q0 11 11 11h59q12 0 12 -11v-532q0 -59 19.5 -83.5t57.5 -24.5q20 0 41 3q13 0 13 -11v-51q0 -11 -10 -13zM312 363q0 -22 -13.5 -36.5t-36.5 -14.5t-37.5 14.5t-14.5 36.5q0 23 14.5 37t37.5 14t36.5 -14t13.5 -37z
" />
    <glyph glyph-name="lslash" unicode="&#x142;" horiz-adv-x="357" 
d="M306 -8q-12 -2 -25.5 -2.5t-25.5 -0.5q-73 0 -112 46.5t-39 137.5v89l-64 -45q-6 -5 -10 -2t-4 9v53q0 8 7 14l71 50v363q0 11 11 11h59q12 0 12 -11v-305l112 80q5 5 9 2.5t4 -9.5v-53q0 -7 -7 -13l-118 -85v-149q0 -59 19.5 -83.5t57.5 -24.5q20 0 41 3q12 0 12 -11
v-51q0 -12 -10 -13z" />
    <glyph glyph-name="m" unicode="m" horiz-adv-x="817" 
d="M392 479q36 24 72.5 36.5t81.5 12.5q46 0 84 -13t65.5 -39t42.5 -64t15 -88v-313q0 -11 -11 -11h-59q-12 0 -12 11v315q0 60 -31 94t-96 34q-32 0 -59.5 -9t-50.5 -25q19 -41 19 -95v-314q0 -11 -11 -11h-60q-11 0 -11 11v315q0 128 -120 128q-31 0 -55.5 -5t-45.5 -13
v-425q0 -11 -12 -11h-59q-11 0 -11 11v464q0 10 9 14q40 18 83 28.5t89 10.5t81.5 -13t61.5 -36z" />
    <glyph glyph-name="n" unicode="n" horiz-adv-x="557" 
d="M79 0q-11 0 -11 11v464q0 10 8 14q43 18 91.5 28.5t100.5 10.5q50 0 91.5 -12t71 -38.5t46 -67.5t16.5 -98v-301q0 -11 -12 -11h-59q-11 0 -11 11v299q0 78 -37.5 111t-105.5 33q-32 0 -63.5 -5t-54.5 -13v-425q0 -11 -12 -11h-59z" />
    <glyph glyph-name="nacute" unicode="&#x144;" horiz-adv-x="557" 
d="M79 0q-11 0 -11 11v464q0 10 8 14q43 18 91.5 28.5t100.5 10.5q50 0 91.5 -12t71 -38.5t46 -67.5t16.5 -98v-301q0 -11 -12 -11h-59q-11 0 -11 11v299q0 78 -37.5 111t-105.5 33q-32 0 -63.5 -5t-54.5 -13v-425q0 -11 -12 -11h-59zM217 597q-7 0 -10 4t1 10l81 133
q5 7 14 7h63q16 0 6 -14l-96 -133q-5 -7 -14 -7h-45z" />
    <glyph glyph-name="ncaron" unicode="&#x148;" horiz-adv-x="557" 
d="M79 0q-11 0 -11 11v464q0 10 8 14q43 18 91.5 28.5t100.5 10.5q50 0 91.5 -12t71 -38.5t46 -67.5t16.5 -98v-301q0 -11 -12 -11h-59q-11 0 -11 11v299q0 78 -37.5 111t-105.5 33q-32 0 -63.5 -5t-54.5 -13v-425q0 -11 -12 -11h-59zM180 751q7 0 14 -7l78 -91l76 91
q5 7 14 7h52q7 0 8.5 -4t-3.5 -10l-112 -133q-5 -7 -14 -7h-43q-7 0 -14 7l-113 133q-5 6 -3 10t10 4h50z" />
    <glyph glyph-name="uni0146" unicode="&#x146;" horiz-adv-x="557" 
d="M79 0q-11 0 -11 11v464q0 10 8 14q43 18 91.5 28.5t100.5 10.5q50 0 91.5 -12t71 -38.5t46 -67.5t16.5 -98v-301q0 -11 -12 -11h-59q-11 0 -11 11v299q0 78 -37.5 111t-105.5 33q-32 0 -63.5 -5t-54.5 -13v-425q0 -11 -12 -11h-59zM224 -236q-13 0 -10 12l34 139
q3 10 13 10h51q12 0 9 -13l-48 -139q-3 -9 -13 -9h-36z" />
    <glyph glyph-name="eng" unicode="&#x14b;" horiz-adv-x="557" 
d="M493 -11q0 -100 -38 -144.5t-110 -44.5q-26 0 -46 4q-11 1 -11 12v51q0 11 12 11q11 -2 20.5 -2.5t15.5 -0.5q37 0 56 27.5t19 86.5v321q0 78 -37.5 111t-105.5 33q-32 0 -63.5 -5t-54.5 -13v-425q0 -11 -12 -11h-59q-11 0 -11 11v464q0 9 7 13q43 19 92 29.5t101 10.5
q50 0 91.5 -12t71 -38.5t46 -67.5t16.5 -98v-323v0z" />
    <glyph glyph-name="ntilde" unicode="&#xf1;" horiz-adv-x="557" 
d="M79 0q-11 0 -11 11v464q0 10 8 14q43 18 91.5 28.5t100.5 10.5q50 0 91.5 -12t71 -38.5t46 -67.5t16.5 -98v-301q0 -11 -12 -11h-59q-11 0 -11 11v299q0 78 -37.5 111t-105.5 33q-32 0 -63.5 -5t-54.5 -13v-425q0 -11 -12 -11h-59zM423 680q-4 -12 -11.5 -25t-18.5 -23.5
t-25 -17.5t-30 -7q-17 0 -35.5 7.5t-35.5 16.5t-31.5 16.5t-28.5 7.5q-16 0 -25.5 -10t-15.5 -24q-4 -7 -8 -7t-8 2l-33 19q-10 6 -5 15q4 12 12 24t18.5 22.5t24 17t29.5 6.5q19 0 37.5 -7.5t35.5 -17.5q14 -8 30.5 -15.5t30.5 -7.5t22 8.5t17 25.5q5 11 15 5l33 -18
q9 -5 6 -13z" />
    <glyph glyph-name="o" unicode="o" horiz-adv-x="540" 
d="M490 185q0 -44 -15.5 -80t-44 -62t-69 -40t-91.5 -14t-91.5 14t-69 40t-44 62t-15.5 80v144q0 44 15.5 80.5t44 63t69 41t91.5 14.5t91.5 -14.5t69 -41t44 -63t15.5 -80.5v-144zM133 185q0 -57 35 -90t102 -33q68 0 103 33t35 90v144q0 57 -35 91t-103 34q-67 0 -102 -34
t-35 -91v-144z" />
    <glyph glyph-name="oacute" unicode="&#xf3;" horiz-adv-x="540" 
d="M490 185q0 -44 -15.5 -80t-44 -62t-69 -40t-91.5 -14t-91.5 14t-69 40t-44 62t-15.5 80v144q0 44 15.5 80.5t44 63t69 41t91.5 14.5t91.5 -14.5t69 -41t44 -63t15.5 -80.5v-144zM133 185q0 -57 35 -90t102 -33q68 0 103 33t35 90v144q0 57 -35 91t-103 34q-67 0 -102 -34
t-35 -91v-144zM218 597q-7 0 -10 4t1 10l81 133q5 7 14 7h63q16 0 6 -14l-96 -133q-5 -7 -14 -7h-45z" />
    <glyph glyph-name="ocircumflex" unicode="&#xf4;" horiz-adv-x="540" 
d="M490 185q0 -44 -15.5 -80t-44 -62t-69 -40t-91.5 -14t-91.5 14t-69 40t-44 62t-15.5 80v144q0 44 15.5 80.5t44 63t69 41t91.5 14.5t91.5 -14.5t69 -41t44 -63t15.5 -80.5v-144zM133 185q0 -57 35 -90t102 -33q68 0 103 33t35 90v144q0 57 -35 91t-103 34q-67 0 -102 -34
t-35 -91v-144zM128 597q-8 0 -10 4t3 10l113 133q7 7 14 7h43q9 0 14 -7l112 -133q5 -6 3.5 -10t-8.5 -4h-52q-9 0 -14 7l-76 91l-78 -91q-7 -7 -14 -7h-50z" />
    <glyph glyph-name="odieresis" unicode="&#xf6;" horiz-adv-x="540" 
d="M490 185q0 -44 -15.5 -80t-44 -62t-69 -40t-91.5 -14t-91.5 14t-69 40t-44 62t-15.5 80v144q0 44 15.5 80.5t44 63t69 41t91.5 14.5t91.5 -14.5t69 -41t44 -63t15.5 -80.5v-144zM133 185q0 -57 35 -90t102 -33q68 0 103 33t35 90v144q0 57 -35 91t-103 34q-67 0 -102 -34
t-35 -91v-144zM221 662q0 -22 -13 -34.5t-34 -12.5q-20 0 -33.5 12.5t-13.5 34.5q0 23 13.5 35.5t33.5 12.5q21 0 34 -12.5t13 -35.5zM413 662q0 -22 -13.5 -34.5t-33.5 -12.5q-21 0 -34.5 12.5t-13.5 34.5q0 23 13.5 35.5t34.5 12.5q20 0 33.5 -12.5t13.5 -35.5z" />
    <glyph glyph-name="ograve" unicode="&#xf2;" horiz-adv-x="540" 
d="M490 185q0 -44 -15.5 -80t-44 -62t-69 -40t-91.5 -14t-91.5 14t-69 40t-44 62t-15.5 80v144q0 44 15.5 80.5t44 63t69 41t91.5 14.5t91.5 -14.5t69 -41t44 -63t15.5 -80.5v-144zM133 185q0 -57 35 -90t102 -33q68 0 103 33t35 90v144q0 57 -35 91t-103 34q-67 0 -102 -34
t-35 -91v-144zM314.001 597q7 0 9.99902 4q3 4 -1 10l-80.9941 133q-5 7 -14 7h-62.9961q-15.999 0 -5.99902 -14l95.9941 -133q4.99902 -7 13.999 -7h44.9971z" />
    <glyph glyph-name="ohungarumlaut" unicode="&#x151;" horiz-adv-x="540" 
d="M490 185q0 -44 -15.5 -80t-44 -62t-69 -40t-91.5 -14t-91.5 14t-69 40t-44 62t-15.5 80v144q0 44 15.5 80.5t44 63t69 41t91.5 14.5t91.5 -14.5t69 -41t44 -63t15.5 -80.5v-144zM133 185q0 -57 35 -90t102 -33q68 0 103 33t35 90v144q0 57 -35 91t-103 34q-67 0 -102 -34
t-35 -91v-144zM163 597q-16 0 -9 14l72 132q6 8 14 8h50q16 0 7 -14l-84 -133q-6 -7 -14 -7h-36zM307 597q-15 0 -8 14l79 133q5 7 14 7h50q7 0 9.5 -4t-1.5 -10l-93 -133q-5 -7 -14 -7h-36z" />
    <glyph glyph-name="omacron" unicode="&#x14d;" horiz-adv-x="540" 
d="M490 185q0 -44 -15.5 -80t-44 -62t-69 -40t-91.5 -14t-91.5 14t-69 40t-44 62t-15.5 80v144q0 44 15.5 80.5t44 63t69 41t91.5 14.5t91.5 -14.5t69 -41t44 -63t15.5 -80.5v-144zM133 185q0 -57 35 -90t102 -33q68 0 103 33t35 90v144q0 57 -35 91t-103 34q-67 0 -102 -34
t-35 -91v-144zM133 674q0 12 11 12h252q11 0 11 -12v-43q0 -11 -11 -11h-252q-11 0 -11 11v43z" />
    <glyph glyph-name="oslash" unicode="&#xf8;" horiz-adv-x="540" 
d="M64 -57q-15 0 -8 14l51 88q-27 26 -42 61t-15 79v144q0 44 15 80.5t43.5 63t69.5 41t92 14.5q60 0 104 -21l39 66q5 8 14 8h50q15 0 8 -14l-55 -94q60 -54 60 -144v-144q0 -44 -15.5 -80t-44 -62t-69 -40t-91.5 -14q-64 0 -108 22l-35 -60q-5 -8 -13 -8h-50zM133 185
q0 -37 17 -63l187 318q-28 14 -67 14q-68 0 -102.5 -34t-34.5 -91v-144zM270 62q68 0 102.5 33t34.5 90v144q0 40 -20 68l-187 -320q14 -7 31.5 -11t38.5 -4z" />
    <glyph glyph-name="otilde" unicode="&#xf5;" horiz-adv-x="540" 
d="M490 185q0 -44 -15.5 -80t-44 -62t-69 -40t-91.5 -14t-91.5 14t-69 40t-44 62t-15.5 80v144q0 44 15.5 80.5t44 63t69 41t91.5 14.5t91.5 -14.5t69 -41t44 -63t15.5 -80.5v-144zM133 185q0 -57 35 -90t102 -33q68 0 103 33t35 90v144q0 57 -35 91t-103 34q-67 0 -102 -34
t-35 -91v-144zM425 680q-4 -12 -11.5 -25t-18.5 -23.5t-25 -17.5t-30 -7q-17 0 -35.5 7.5t-35.5 16.5t-31.5 16.5t-28.5 7.5q-16 0 -25.5 -10t-15.5 -24q-4 -7 -8 -7t-8 2l-33 19q-10 6 -5 15q4 12 12 24t18.5 22.5t24 17t29.5 6.5q19 0 37.5 -7.5t35.5 -17.5
q14 -8 30.5 -15.5t30.5 -7.5t22 8.5t17 25.5q5 11 15 5l33 -18q9 -5 6 -13z" />
    <glyph glyph-name="oe" unicode="&#x153;" horiz-adv-x="874" 
d="M618 -11q-51 0 -97 19.5t-74 59.5q-27 -37 -72 -58t-105 -21q-51 0 -91.5 14t-69 40t-44 62t-15.5 80v144q0 44 15.5 80.5t44 63t69 41t91.5 14.5q60 0 105 -22t73 -60q29 42 74.5 62t96.5 20q41 0 78.5 -12t66.5 -36.5t46.5 -62t17.5 -88.5v-98q0 -12 -11 -12h-327v-42
q0 -56 37 -85t93 -29q52 0 88 17t64 40q10 6 16 -3l31 -39q8 -9 -2 -17q-38 -31 -87 -51.5t-112 -20.5zM133 185q0 -57 35 -90t102 -33q68 0 103 33t35 90v144q0 57 -35 91t-103 34q-67 0 -102 -34t-35 -91v-144zM490 287h258v42q0 64 -37 94.5t-92 30.5q-57 0 -93 -30
t-36 -95v-42z" />
    <glyph glyph-name="p" unicode="p" horiz-adv-x="543" 
d="M76 492q43 17 94.5 26.5t99.5 9.5q49 0 90 -12.5t70.5 -39t46 -67.5t16.5 -98v-110q0 -51 -16 -90.5t-45 -66.5t-69.5 -41t-88.5 -14q-35 0 -66.5 8.5t-57.5 22.5v-199q0 -11 -12 -11h-59q-11 0 -11 11v658q0 10 8 13zM269 62q68 0 104.5 33t36.5 106v110q0 79 -37.5 112
t-104.5 33q-32 0 -63.5 -5t-54.5 -15v-338q24 -17 54 -26.5t65 -9.5z" />
    <glyph glyph-name="thorn" unicode="&#xfe;" horiz-adv-x="544" 
d="M151 503q28 12 60 18.5t64 6.5q44 0 83.5 -11.5t69.5 -35.5t47.5 -62t17.5 -92v-139q0 -50 -17.5 -87t-47.5 -62t-70 -37.5t-84 -12.5q-32 0 -64 7t-59 21v-195q0 -12 -12 -12h-59q-11 0 -11 12v882q0 11 11 11h59q12 0 12 -11v-201zM268 62q28 0 54 7t45.5 22t31 39
t11.5 59v136q0 36 -11.5 61t-31 40.5t-45.5 22t-55 6.5q-31 0 -62 -7t-54 -18v-340q24 -13 55 -20.5t62 -7.5z" />
    <glyph glyph-name="q" unicode="q" horiz-adv-x="543" 
d="M50 311q0 57 16.5 98t46 67.5t70.5 39t90 12.5q48 0 99 -9.5t94 -26.5q9 -3 9 -13v-658q0 -11 -11 -11h-59q-12 0 -12 11v199q-26 -14 -57.5 -22.5t-66.5 -8.5q-48 0 -88.5 14t-69.5 41t-45 66.5t-16 90.5v110zM133 201q0 -73 36.5 -106t104.5 -33q35 0 65 9.5t54 26.5
v339q-23 9 -54.5 14t-63.5 5q-67 0 -104.5 -33t-37.5 -112v-110z" />
    <glyph glyph-name="r" unicode="r" horiz-adv-x="377" 
d="M79 0q-11 0 -11 11v467q0 10 8 13q38 18 82 27.5t89 9.5q25 0 50.5 -2t52.5 -6q10 -1 10 -13v-49q0 -13 -12 -10q-21 3 -44 5t-46 2q-31 0 -59.5 -6t-48.5 -14v-424q0 -11 -12 -11h-59z" />
    <glyph glyph-name="racute" unicode="&#x155;" horiz-adv-x="377" 
d="M79 0q-11 0 -11 11v467q0 10 8 13q38 18 82 27.5t89 9.5q25 0 50.5 -2t52.5 -6q10 -1 10 -13v-49q0 -13 -12 -10q-21 3 -44 5t-46 2q-31 0 -59.5 -6t-48.5 -14v-424q0 -11 -12 -11h-59zM169 597q-7 0 -10 4t1 10l81 133q5 7 14 7h63q16 0 6 -14l-96 -133q-5 -7 -14 -7
h-45z" />
    <glyph glyph-name="rcaron" unicode="&#x159;" horiz-adv-x="377" 
d="M79 0q-11 0 -11 11v467q0 10 8 13q38 18 82 27.5t89 9.5q25 0 50.5 -2t52.5 -6q10 -1 10 -13v-49q0 -13 -12 -10q-21 3 -44 5t-46 2q-31 0 -59.5 -6t-48.5 -14v-424q0 -11 -12 -11h-59zM124 751q7 0 14 -7l78 -91l76 91q5 7 14 7h52q7 0 8.5 -4t-3.5 -10l-112 -133
q-5 -7 -14 -7h-43q-7 0 -14 7l-113 133q-5 6 -3 10t10 4h50z" />
    <glyph glyph-name="uni0157" unicode="&#x157;" horiz-adv-x="377" 
d="M79 0q-11 0 -11 11v467q0 10 8 13q38 18 82 27.5t89 9.5q25 0 50.5 -2t52.5 -6q10 -1 10 -13v-49q0 -13 -12 -10q-21 3 -44 5t-46 2q-31 0 -59.5 -6t-48.5 -14v-424q0 -11 -12 -11h-59zM61 -236q-13 0 -10 12l34 139q3 10 13 10h51q12 0 9 -13l-48 -139q-3 -9 -13 -9h-36
z" />
    <glyph glyph-name="s" unicode="s" horiz-adv-x="475" 
d="M441 146q0 -38 -15.5 -67.5t-42.5 -49.5t-64 -30t-81 -10q-52 0 -102.5 15.5t-95.5 48.5q-8 5 -3 16l27 46q6 10 16 3q36 -27 76.5 -41.5t83.5 -14.5q51 0 84.5 20.5t33.5 59.5q0 21 -10.5 34.5t-27.5 22.5t-38 14t-42 9q-27 6 -61 15t-63.5 26.5t-50 45.5t-20.5 72
q0 38 16.5 66t44.5 46t63 26.5t73 8.5q48 0 90 -12t84 -35q11 -5 4 -15l-27 -45q-5 -11 -15 -4q-31 17 -66.5 27t-73.5 10q-53 0 -82.5 -19.5t-29.5 -53.5q0 -21 10.5 -34.5t28 -23t41 -15.5t50.5 -11q30 -6 62.5 -14.5t60 -25t45 -43t17.5 -68.5z" />
    <glyph glyph-name="sacute" unicode="&#x15b;" horiz-adv-x="475" 
d="M441 146q0 -38 -15.5 -67.5t-42.5 -49.5t-64 -30t-81 -10q-52 0 -102.5 15.5t-95.5 48.5q-8 5 -3 16l27 46q6 10 16 3q36 -27 76.5 -41.5t83.5 -14.5q51 0 84.5 20.5t33.5 59.5q0 21 -10.5 34.5t-27.5 22.5t-38 14t-42 9q-27 6 -61 15t-63.5 26.5t-50 45.5t-20.5 72
q0 38 16.5 66t44.5 46t63 26.5t73 8.5q48 0 90 -12t84 -35q11 -5 4 -15l-27 -45q-5 -11 -15 -4q-31 17 -66.5 27t-73.5 10q-53 0 -82.5 -19.5t-29.5 -53.5q0 -21 10.5 -34.5t28 -23t41 -15.5t50.5 -11q30 -6 62.5 -14.5t60 -25t45 -43t17.5 -68.5zM182 597q-7 0 -10 4t1 10
l81 133q5 7 14 7h63q16 0 6 -14l-96 -133q-5 -7 -14 -7h-45z" />
    <glyph glyph-name="scaron" unicode="&#x161;" horiz-adv-x="475" 
d="M441 146q0 -38 -15.5 -67.5t-42.5 -49.5t-64 -30t-81 -10q-52 0 -102.5 15.5t-95.5 48.5q-8 5 -3 16l27 46q6 10 16 3q36 -27 76.5 -41.5t83.5 -14.5q51 0 84.5 20.5t33.5 59.5q0 21 -10.5 34.5t-27.5 22.5t-38 14t-42 9q-27 6 -61 15t-63.5 26.5t-50 45.5t-20.5 72
q0 38 16.5 66t44.5 46t63 26.5t73 8.5q48 0 90 -12t84 -35q11 -5 4 -15l-27 -45q-5 -11 -15 -4q-31 17 -66.5 27t-73.5 10q-53 0 -82.5 -19.5t-29.5 -53.5q0 -21 10.5 -34.5t28 -23t41 -15.5t50.5 -11q30 -6 62.5 -14.5t60 -25t45 -43t17.5 -68.5zM147 751q7 0 14 -7l78 -91
l76 91q5 7 14 7h52q7 0 8.5 -4t-3.5 -10l-112 -133q-5 -7 -14 -7h-43q-7 0 -14 7l-113 133q-5 6 -3 10t10 4h50z" />
    <glyph glyph-name="scedilla" unicode="&#x15f;" horiz-adv-x="475" 
d="M344 -122q0 -41 -32 -62t-84 -21q-31 0 -58 9q-9 3 -9 13v24q0 12 13 10q12 -4 23.5 -5.5t21.5 -1.5q25 0 42.5 8.5t17.5 30.5q0 17 -15 26.5t-48 10.5q-10 0 -14 8q-2 4 1 11l20 50q-48 2 -94.5 17.5t-88.5 46.5q-8 5 -3 16l27 46q6 10 16 3q36 -27 76.5 -41.5
t83.5 -14.5q51 0 84.5 20.5t33.5 59.5q0 21 -10.5 34.5t-27.5 22.5t-38 14t-42 9q-27 6 -61 15t-63.5 26.5t-50 45.5t-20.5 72q0 38 16.5 66t44.5 46t63 26.5t73 8.5q48 0 90 -12t84 -35q11 -5 4 -15l-27 -45q-5 -11 -15 -4q-31 17 -66.5 27t-73.5 10q-53 0 -82.5 -19.5
t-29.5 -53.5q0 -21 10.5 -34.5t28 -23t41 -15.5t50.5 -11q30 -6 62.5 -14.5t60 -25t45 -43t17.5 -68.5q0 -69 -46.5 -108t-119.5 -47l-17 -41q39 -2 62.5 -21t23.5 -51z" />
    <glyph glyph-name="uni0219" unicode="&#x219;" horiz-adv-x="475" 
d="M441 146q0 -38 -15.5 -67.5t-42.5 -49.5t-64 -30t-81 -10q-52 0 -102.5 15.5t-95.5 48.5q-8 5 -3 16l27 46q6 10 16 3q36 -27 76.5 -41.5t83.5 -14.5q51 0 84.5 20.5t33.5 59.5q0 21 -10.5 34.5t-27.5 22.5t-38 14t-42 9q-27 6 -61 15t-63.5 26.5t-50 45.5t-20.5 72
q0 38 16.5 66t44.5 46t63 26.5t73 8.5q48 0 90 -12t84 -35q11 -5 4 -15l-27 -45q-5 -11 -15 -4q-31 17 -66.5 27t-73.5 10q-53 0 -82.5 -19.5t-29.5 -53.5q0 -21 10.5 -34.5t28 -23t41 -15.5t50.5 -11q30 -6 62.5 -14.5t60 -25t45 -43t17.5 -68.5zM184 -236q-13 0 -10 12
l34 139q3 10 13 10h51q12 0 9 -13l-48 -139q-3 -9 -13 -9h-36z" />
    <glyph glyph-name="germandbls" unicode="&#xdf;" horiz-adv-x="558" 
d="M486 529q0 -47 -20 -88t-65 -61q59 -23 86.5 -69t27.5 -106q0 -50 -17 -88.5t-46 -65t-68.5 -40.5t-84.5 -14q-23 0 -48 4t-49 12q-9 4 -9 13v55q0 14 13 9q20 -7 42.5 -10t41.5 -3q62 0 102 33.5t40 97.5q0 61 -35 95t-101 34h-88q-11 0 -11 12v51q0 12 11 12h85
q54 0 82.5 34t28.5 83q0 62 -32 94t-96 32q-125 0 -125 -136v-508q0 -11 -12 -11h-59q-11 0 -11 11v508q0 52 16 90.5t43.5 64.5t65.5 39t82 13q45 0 83.5 -12.5t66.5 -37t44 -61.5t16 -86z" />
    <glyph glyph-name="t" unicode="t" horiz-adv-x="321" 
d="M148 170q0 -50 24.5 -77.5t71.5 -27.5q8 0 21 0.5t27 1.5q12 0 12 -11v-53q0 -11 -10 -12q-14 -1 -29 -1.5t-25 -0.5q-38 0 -69.5 10.5t-55 32t-36.5 55t-13 79.5v466q0 12 12 12h52q9 0 11 -11l7 -121h130q11 0 11 -11v-50q0 -12 -11 -12h-130v-269v0z" />
    <glyph glyph-name="tbar" unicode="&#x167;" horiz-adv-x="326" 
d="M298 -9q-14 -1 -29 -1.5t-25 -0.5q-37 0 -68.5 10.5t-55 32t-36.5 55t-13 79.5v84h-43q-12 0 -12 11v34q0 11 12 11h43v326q0 12 11 12h52q11 0 11 -11l7 -121h130q12 0 12 -11v-50q0 -12 -12 -12h-129v-133h85q11 0 11 -11v-34q0 -11 -11 -11h-85v-80q0 -50 24 -77.5
t71 -27.5q8 0 21.5 0.5t27.5 1.5q12 0 12 -11v-53q0 -10 -11 -12z" />
    <glyph glyph-name="tcaron" unicode="&#x165;" horiz-adv-x="321" 
d="M293 -9q-13 -1 -28 -1.5t-25 -0.5q-38 0 -69.5 10.5t-55 32t-36.5 55t-13 79.5v466q0 12 12 12h52q9 0 11 -11l7 -121h130q11 0 11 -11v-50q0 -12 -11 -12h-130v-269q0 -50 24.5 -77.5t71.5 -27.5q8 0 21 0.5t27 1.5q12 0 12 -11v-53q0 -10 -11 -12zM223 589
q-13 0 -10 12l35 135q1 10 13 10h50q14 0 9 -13l-48 -135q-5 -9 -13 -9h-36z" />
    <glyph glyph-name="uni0163" unicode="&#x163;" horiz-adv-x="321" 
d="M140 -236q-13 0 -10 12l34 139q3 10 13 10h51q12 0 9 -13l-48 -139q-3 -9 -13 -9h-36zM148 170q0 -50 24.5 -77.5t71.5 -27.5q8 0 21 0.5t27 1.5q12 0 12 -11v-53q0 -11 -10 -12q-14 -1 -29 -1.5t-25 -0.5q-38 0 -69.5 10.5t-55 32t-36.5 55t-13 79.5v466q0 12 12 12h52
q9 0 11 -11l7 -121h130q11 0 11 -11v-50q0 -12 -11 -12h-130v-269v0z" />
    <glyph glyph-name="uni021B" unicode="&#x21b;" horiz-adv-x="321" 
d="M148 170q0 -50 24.5 -77.5t71.5 -27.5q8 0 21 0.5t27 1.5q12 0 12 -11v-53q0 -11 -10 -12q-14 -1 -29 -1.5t-25 -0.5q-38 0 -69.5 10.5t-55 32t-36.5 55t-13 79.5v466q0 12 12 12h52q9 0 11 -11l7 -121h130q11 0 11 -11v-50q0 -12 -11 -12h-130v-269v0zM140 -236
q-13 0 -10 12l34 139q3 10 13 10h51q12 0 9 -13l-48 -139q-3 -9 -13 -9h-36z" />
    <glyph glyph-name="u" unicode="u" horiz-adv-x="551" 
d="M472 517q11 0 11 -12v-463q0 -11 -8 -14q-42 -19 -90 -29t-99 -10q-49 0 -89.5 12t-70 38.5t-45.5 67.5t-16 98v300q0 12 12 12h59q11 0 11 -12v-298q0 -79 36.5 -112t102.5 -33q32 0 62 5.5t53 13.5v424q0 12 12 12h59z" />
    <glyph glyph-name="uacute" unicode="&#xfa;" horiz-adv-x="551" 
d="M472 517q11 0 11 -12v-463q0 -11 -8 -14q-42 -19 -90 -29t-99 -10q-49 0 -89.5 12t-70 38.5t-45.5 67.5t-16 98v300q0 12 12 12h59q11 0 11 -12v-298q0 -79 36.5 -112t102.5 -33q32 0 62 5.5t53 13.5v424q0 12 12 12h59zM223 597q-7 0 -10 4t1 10l81 133q5 7 14 7h63
q16 0 6 -14l-96 -133q-5 -7 -14 -7h-45z" />
    <glyph glyph-name="ucircumflex" unicode="&#xfb;" horiz-adv-x="551" 
d="M472 517q11 0 11 -12v-463q0 -11 -8 -14q-42 -19 -90 -29t-99 -10q-49 0 -89.5 12t-70 38.5t-45.5 67.5t-16 98v300q0 12 12 12h59q11 0 11 -12v-298q0 -79 36.5 -112t102.5 -33q32 0 62 5.5t53 13.5v424q0 12 12 12h59zM135 597q-8 0 -10 4t3 10l113 133q7 7 14 7h43
q9 0 14 -7l112 -133q5 -6 3.5 -10t-8.5 -4h-52q-9 0 -14 7l-76 91l-78 -91q-7 -7 -14 -7h-50z" />
    <glyph glyph-name="udieresis" unicode="&#xfc;" horiz-adv-x="551" 
d="M472 517q11 0 11 -12v-463q0 -11 -8 -14q-42 -19 -90 -29t-99 -10q-49 0 -89.5 12t-70 38.5t-45.5 67.5t-16 98v300q0 12 12 12h59q11 0 11 -12v-298q0 -79 36.5 -112t102.5 -33q32 0 62 5.5t53 13.5v424q0 12 12 12h59zM228 662q0 -22 -13 -34.5t-34 -12.5
q-20 0 -33.5 12.5t-13.5 34.5q0 23 13.5 35.5t33.5 12.5q21 0 34 -12.5t13 -35.5zM420 662q0 -22 -13.5 -34.5t-33.5 -12.5q-21 0 -34.5 12.5t-13.5 34.5q0 23 13.5 35.5t34.5 12.5q20 0 33.5 -12.5t13.5 -35.5z" />
    <glyph glyph-name="ugrave" unicode="&#xf9;" horiz-adv-x="551" 
d="M472 517q11 0 11 -12v-463q0 -11 -8 -14q-42 -19 -90 -29t-99 -10q-49 0 -89.5 12t-70 38.5t-45.5 67.5t-16 98v300q0 12 12 12h59q11 0 11 -12v-298q0 -79 36.5 -112t102.5 -33q32 0 62 5.5t53 13.5v424q0 12 12 12h59zM321.001 597q7 0 9.99902 4q3 4 -1 10
l-80.9941 133q-5 7 -14 7h-62.9961q-15.999 0 -5.99902 -14l95.9941 -133q4.99902 -7 13.999 -7h44.9971z" />
    <glyph glyph-name="uhungarumlaut" unicode="&#x171;" horiz-adv-x="551" 
d="M472 517q11 0 11 -12v-463q0 -11 -8 -14q-42 -19 -90 -29t-99 -10q-49 0 -89.5 12t-70 38.5t-45.5 67.5t-16 98v300q0 12 12 12h59q11 0 11 -12v-298q0 -79 36.5 -112t102.5 -33q32 0 62 5.5t53 13.5v424q0 12 12 12h59zM170 597q-16 0 -9 14l72 132q6 8 14 8h50
q16 0 7 -14l-84 -133q-6 -7 -14 -7h-36zM314 597q-15 0 -8 14l79 133q5 7 14 7h50q7 0 9.5 -4t-1.5 -10l-93 -133q-5 -7 -14 -7h-36z" />
    <glyph glyph-name="umacron" unicode="&#x16b;" horiz-adv-x="551" 
d="M472 517q11 0 11 -12v-463q0 -11 -8 -14q-42 -19 -90 -29t-99 -10q-49 0 -89.5 12t-70 38.5t-45.5 67.5t-16 98v300q0 12 12 12h59q11 0 11 -12v-298q0 -79 36.5 -112t102.5 -33q32 0 62 5.5t53 13.5v424q0 12 12 12h59zM141 674q0 12 11 12h252q11 0 11 -12v-43
q0 -11 -11 -11h-252q-11 0 -11 11v43z" />
    <glyph glyph-name="uogonek" unicode="&#x173;" horiz-adv-x="550" 
d="M452 -180q-19 -10 -41 -14.5t-44 -4.5q-49 0 -76 22t-27 61q0 33 21 61t56 50q-11 -2 -24 -4t-24 -2q-52 0 -94 12t-72 37t-46 62t-16 88v317q0 12 11 12h59q12 0 12 -12v-317q0 -66 37 -96t106 -30q29 0 58.5 5.5t51.5 13.5v424q0 12 12 12h59q11 0 11 -12v-465
q0 -10 -9 -13q-29 -12 -54.5 -25t-44.5 -28t-29.5 -31t-10.5 -34q0 -20 11.5 -28.5t34.5 -8.5q12 0 25 2.5t27 8.5q11 5 14 -7l13 -42q3 -10 -7 -14z" />
    <glyph glyph-name="uring" unicode="&#x16f;" horiz-adv-x="551" 
d="M472 517q11 0 11 -12v-463q0 -11 -8 -14q-42 -19 -90 -29t-99 -10q-49 0 -89.5 12t-70 38.5t-45.5 67.5t-16 98v300q0 12 12 12h59q11 0 11 -12v-298q0 -79 36.5 -112t102.5 -33q32 0 62 5.5t53 13.5v424q0 12 12 12h59zM383 685q0 -48 -30 -75t-75 -27q-48 0 -78.5 27.5
t-30.5 75.5q0 47 30.5 74.5t78.5 27.5q45 0 75 -27.5t30 -75.5zM219 685q0 -24 16 -39t42 -15q25 0 40.5 15t15.5 39q0 25 -15.5 40t-40.5 15q-26 0 -42 -15t-16 -40z" />
    <glyph glyph-name="v" unicode="v" horiz-adv-x="500" 
d="M212 0q-9 0 -13 9l-183 494q-5 14 9 14h64q9 0 13 -9l99 -285q12 -34 23.5 -68t24.5 -68h1q11 34 23 68l24 68l100 285q2 9 13 9h64q12 0 9 -14l-184 -494q-5 -9 -14 -9h-73z" />
    <glyph glyph-name="w" unicode="w" horiz-adv-x="756" 
d="M179 0q-11 0 -12 10l-149 493q-4 14 9 14h62q10 0 13 -10l66 -237l10 -40t12.5 -49.5t12.5 -49t10 -38.5h2q10 41 20.5 83t21.5 79l76 243q3 10 12 10h66q9 0 12 -10l76 -243q11 -37 22 -79t21 -83h1q4 15 10 38.5t12.5 49t12.5 49.5l10 40l67 237q1 10 12 10h62
q14 0 9 -14l-148 -493q-3 -10 -13 -10h-70q-11 0 -12 10l-84 272q-10 33 -18 66.5t-13 58.5h-3q-6 -25 -14.5 -58.5t-17.5 -66.5l-84 -272q-1 -10 -12 -10h-70v0z" />
    <glyph glyph-name="wacute" unicode="&#x1e83;" horiz-adv-x="756" 
d="M179 0q-11 0 -12 10l-149 493q-4 14 9 14h62q10 0 13 -10l66 -237l10 -40t12.5 -49.5t12.5 -49t10 -38.5h2q10 41 20.5 83t21.5 79l76 243q3 10 12 10h66q9 0 12 -10l76 -243q11 -37 22 -79t21 -83h1q4 15 10 38.5t12.5 49t12.5 49.5l10 40l67 237q1 10 12 10h62
q14 0 9 -14l-148 -493q-3 -10 -13 -10h-70q-11 0 -12 10l-84 272q-10 33 -18 66.5t-13 58.5h-3q-6 -25 -14.5 -58.5t-17.5 -66.5l-84 -272q-1 -10 -12 -10h-70v0zM326 597q-7 0 -10 4t1 10l81 133q5 7 14 7h63q16 0 6 -14l-96 -133q-5 -7 -14 -7h-45z" />
    <glyph glyph-name="wcircumflex" unicode="&#x175;" horiz-adv-x="756" 
d="M179 0q-11 0 -12 10l-149 493q-4 14 9 14h62q10 0 13 -10l66 -237l10 -40t12.5 -49.5t12.5 -49t10 -38.5h2q10 41 20.5 83t21.5 79l76 243q3 10 12 10h66q9 0 12 -10l76 -243q11 -37 22 -79t21 -83h1q4 15 10 38.5t12.5 49t12.5 49.5l10 40l67 237q1 10 12 10h62
q14 0 9 -14l-148 -493q-3 -10 -13 -10h-70q-11 0 -12 10l-84 272q-10 33 -18 66.5t-13 58.5h-3q-6 -25 -14.5 -58.5t-17.5 -66.5l-84 -272q-1 -10 -12 -10h-70v0zM236 597q-8 0 -10 4t3 10l113 133q7 7 14 7h43q9 0 14 -7l112 -133q5 -6 3.5 -10t-8.5 -4h-52q-9 0 -14 7
l-76 91l-78 -91q-7 -7 -14 -7h-50z" />
    <glyph glyph-name="wdieresis" unicode="&#x1e85;" horiz-adv-x="756" 
d="M317 662q0 -22 -13 -34.5t-34 -12.5q-20 0 -34 12.5t-14 34.5q0 23 14 35.5t34 12.5q21 0 34 -12.5t13 -35.5zM534 662q0 -22 -13.5 -34.5t-33.5 -12.5q-21 0 -34.5 12.5t-13.5 34.5q0 23 13.5 35.5t34.5 12.5q20 0 33.5 -12.5t13.5 -35.5zM179 0q-11 0 -12 10l-149 493
q-4 14 9 14h62q10 0 13 -10l66 -237l10 -40t12.5 -49.5t12.5 -49t10 -38.5h2q10 41 20.5 83t21.5 79l76 243q3 10 12 10h66q9 0 12 -10l76 -243q11 -37 22 -79t21 -83h1q4 15 10 38.5t12.5 49t12.5 49.5l10 40l67 237q1 10 12 10h62q14 0 9 -14l-148 -493q-3 -10 -13 -10
h-70q-11 0 -12 10l-84 272q-10 33 -18 66.5t-13 58.5h-3q-6 -25 -14.5 -58.5t-17.5 -66.5l-84 -272q-1 -10 -12 -10h-70v0z" />
    <glyph glyph-name="wgrave" unicode="&#x1e81;" horiz-adv-x="756" 
d="M179 0q-11 0 -12 10l-149 493q-4 14 9 14h62q10 0 13 -10l66 -237l10 -40t12.5 -49.5t12.5 -49t10 -38.5h2q10 41 20.5 83t21.5 79l76 243q3 10 12 10h66q9 0 12 -10l76 -243q11 -37 22 -79t21 -83h1q4 15 10 38.5t12.5 49t12.5 49.5l10 40l67 237q1 10 12 10h62
q14 0 9 -14l-148 -493q-3 -10 -13 -10h-70q-11 0 -12 10l-84 272q-10 33 -18 66.5t-13 58.5h-3q-6 -25 -14.5 -58.5t-17.5 -66.5l-84 -272q-1 -10 -12 -10h-70v0zM419.001 597q7 0 9.99902 4q3 4 -1 10l-80.9941 133q-5 7 -14 7h-62.9961q-15.999 0 -5.99902 -14
l95.9941 -133q4.99902 -7 13.999 -7h44.9971z" />
    <glyph glyph-name="x" unicode="x" horiz-adv-x="487" 
d="M468 14q9 -14 -7 -14h-74q-9 0 -13 7l-130 197l-130 -197q-4 -7 -14 -7h-74q-16 0 -7 14l174 247l-163 242q-4 5 -2 9.5t9 4.5h70q8 0 14 -8l123 -190l123 190q6 8 13 8h70q7 0 9.5 -4.5t-1.5 -9.5l-164 -242z" />
    <glyph glyph-name="y" unicode="y" horiz-adv-x="551" 
d="M400 505q0 12 11 12h59q12 0 12 -12v-491q0 -102 -51 -157.5t-160 -56.5q-62 0 -108 18t-85 51q-7 7 -1 17l30 41q7 10 16 3q31 -23 67 -39t81 -17q65 1 98 34t31 111v23q-27 -11 -59.5 -18.5t-64.5 -7.5q-41 0 -79 12t-67.5 37t-47.5 62t-18 88v290q0 12 11 12h59
q12 0 12 -12v-286q0 -35 11 -59t30 -39t44.5 -22t54.5 -7q32 0 61.5 7t52.5 20v386z" />
    <glyph glyph-name="yacute" unicode="&#xfd;" horiz-adv-x="551" 
d="M400 505q0 12 11 12h59q12 0 12 -12v-491q0 -102 -51 -157.5t-160 -56.5q-62 0 -108 18t-85 51q-7 7 -1 17l30 41q7 10 16 3q31 -23 67 -39t81 -17q65 1 98 34t31 111v23q-27 -11 -59.5 -18.5t-64.5 -7.5q-41 0 -79 12t-67.5 37t-47.5 62t-18 88v290q0 12 11 12h59
q12 0 12 -12v-286q0 -35 11 -59t30 -39t44.5 -22t54.5 -7q32 0 61.5 7t52.5 20v386zM224 597q-7 0 -10 4t1 10l81 133q5 7 14 7h63q16 0 6 -14l-96 -133q-5 -7 -14 -7h-45z" />
    <glyph glyph-name="ycircumflex" unicode="&#x177;" horiz-adv-x="551" 
d="M400 505q0 12 11 12h59q12 0 12 -12v-491q0 -102 -51 -157.5t-160 -56.5q-62 0 -108 18t-85 51q-7 7 -1 17l30 41q7 10 16 3q31 -23 67 -39t81 -17q65 1 98 34t31 111v23q-27 -11 -59.5 -18.5t-64.5 -7.5q-41 0 -79 12t-67.5 37t-47.5 62t-18 88v290q0 12 11 12h59
q12 0 12 -12v-286q0 -35 11 -59t30 -39t44.5 -22t54.5 -7q32 0 61.5 7t52.5 20v386zM132 597q-8 0 -10 4t3 10l113 133q7 7 14 7h43q9 0 14 -7l112 -133q5 -6 3.5 -10t-8.5 -4h-52q-9 0 -14 7l-76 91l-78 -91q-7 -7 -14 -7h-50z" />
    <glyph glyph-name="ydieresis" unicode="&#xff;" horiz-adv-x="551" 
d="M400 505q0 12 11 12h59q12 0 12 -12v-491q0 -102 -51 -157.5t-160 -56.5q-62 0 -108 18t-85 51q-7 7 -1 17l30 41q7 10 16 3q31 -23 67 -39t81 -17q65 1 98 34t31 111v23q-27 -11 -59.5 -18.5t-64.5 -7.5q-41 0 -79 12t-67.5 37t-47.5 62t-18 88v290q0 12 11 12h59
q12 0 12 -12v-286q0 -35 11 -59t30 -39t44.5 -22t54.5 -7q32 0 61.5 7t52.5 20v386zM225 662q0 -22 -13 -34.5t-34 -12.5q-20 0 -33.5 12.5t-13.5 34.5q0 23 13.5 35.5t33.5 12.5q21 0 34 -12.5t13 -35.5zM417 662q0 -22 -13.5 -34.5t-33.5 -12.5q-21 0 -34.5 12.5
t-13.5 34.5q0 23 13.5 35.5t34.5 12.5q20 0 33.5 -12.5t13.5 -35.5z" />
    <glyph glyph-name="ygrave" unicode="&#x1ef3;" horiz-adv-x="551" 
d="M400 505q0 12 11 12h59q12 0 12 -12v-491q0 -102 -51 -157.5t-160 -56.5q-62 0 -108 18t-85 51q-7 7 -1 17l30 41q7 10 16 3q31 -23 67 -39t81 -17q65 1 98 34t31 111v23q-27 -11 -59.5 -18.5t-64.5 -7.5q-41 0 -79 12t-67.5 37t-47.5 62t-18 88v290q0 12 11 12h59
q12 0 12 -12v-286q0 -35 11 -59t30 -39t44.5 -22t54.5 -7q32 0 61.5 7t52.5 20v386zM318.001 597q7 0 9.99902 4q3 4 -1 10l-80.9941 133q-5 7 -14 7h-62.9961q-15.999 0 -5.99902 -14l95.9941 -133q4.99902 -7 13.999 -7h44.9971z" />
    <glyph glyph-name="z" unicode="z" horiz-adv-x="467" 
d="M42 0q-11 0 -11 11v30q0 9 5 14l278 388h-257q-11 0 -11 12v50q0 12 11 12h359q12 0 12 -12v-27q0 -7 -5 -14l-280 -391h279q11 0 11 -11v-51q0 -11 -11 -11h-380z" />
    <glyph glyph-name="zacute" unicode="&#x17a;" horiz-adv-x="467" 
d="M42 0q-11 0 -11 11v30q0 9 5 14l278 388h-257q-11 0 -11 12v50q0 12 11 12h359q12 0 12 -12v-27q0 -7 -5 -14l-280 -391h279q11 0 11 -11v-51q0 -11 -11 -11h-380zM183 597q-7 0 -10 4t1 10l81 133q5 7 14 7h63q16 0 6 -14l-96 -133q-5 -7 -14 -7h-45z" />
    <glyph glyph-name="zcaron" unicode="&#x17e;" horiz-adv-x="467" 
d="M42 0q-11 0 -11 11v30q0 9 5 14l278 388h-257q-11 0 -11 12v50q0 12 11 12h359q12 0 12 -12v-27q0 -7 -5 -14l-280 -391h279q11 0 11 -11v-51q0 -11 -11 -11h-380zM96 751.036q-8 0 -10 -3.99902q-2 -4 3 -10l113 -132.992q7 -6.99902 14 -6.99902h43q9 0 14 6.99902
l112 132.992q5 6 3.5 10q-1.5 3.99902 -8.5 3.99902h-52q-9 0 -14 -6.99902l-76 -90.9951l-78 90.9951q-7 6.99902 -14 6.99902h-50z" />
    <glyph glyph-name="zdotaccent" unicode="&#x17c;" horiz-adv-x="467" 
d="M42 0q-11 0 -11 11v30q0 9 5 14l278 388h-257q-11 0 -11 12v50q0 12 11 12h359q12 0 12 -12v-27q0 -7 -5 -14l-280 -391h279q11 0 11 -11v-51q0 -11 -11 -11h-380zM283 662q0 -21 -14 -35.5t-36 -14.5q-21 0 -35.5 14.5t-14.5 35.5q0 22 14.5 36t35.5 14q22 0 36 -14
t14 -36z" />
    <glyph glyph-name="a.ss01" horiz-adv-x="541" 
d="M397 57q-29 -33 -69 -50.5t-84 -17.5q-40 0 -75 11.5t-61.5 36.5t-42 64t-15.5 94v124q0 52 18 91.5t48 65.5t70.5 39t85.5 13q48 0 96 -9.5t96 -26.5q9 -3 9 -13v-468q0 -11 -11 -11h-49q-10 0 -12 11zM133 195q0 -70 30.5 -101.5t92.5 -31.5q33 0 69.5 16.5t65.5 48.5
v311q-29 8 -61 12.5t-61 4.5q-57 0 -96.5 -34t-39.5 -102v-124z" />
    <glyph glyph-name="aacute.ss01" horiz-adv-x="541" 
d="M221 598q-7 0 -10 4t1 10l81 133q5 7 14 7h63q16 0 6 -14l-96 -133q-5 -7 -14 -7h-45zM397 57q-29 -33 -69 -50.5t-84 -17.5q-40 0 -75 11.5t-61.5 36.5t-42 64t-15.5 94v124q0 52 18 91.5t48 65.5t70.5 39t85.5 13q48 0 96 -9.5t96 -26.5q9 -3 9 -13v-468q0 -11 -11 -11
h-49q-10 0 -12 11zM133 195q0 -70 30.5 -101.5t92.5 -31.5q33 0 69.5 16.5t65.5 48.5v311q-29 8 -61 12.5t-61 4.5q-57 0 -96.5 -34t-39.5 -102v-124z" />
    <glyph glyph-name="abreve.ss01" horiz-adv-x="541" 
d="M428 733q-7 -60 -46.5 -97.5t-108.5 -37.5t-107 37t-46 97q-1 5 2 8.5t8 4.5l40 5q10 1 13 -9q7 -38 29 -59t61 -21q41 0 63 21t29 59q1 10 13 9l39 -5q12 -2 11 -12zM397 57q-29 -33 -69 -50.5t-84 -17.5q-40 0 -75 11.5t-61.5 36.5t-42 64t-15.5 94v124q0 52 18 91.5
t48 65.5t70.5 39t85.5 13q48 0 96 -9.5t96 -26.5q9 -3 9 -13v-468q0 -11 -11 -11h-49q-10 0 -12 11zM133 195q0 -70 30.5 -101.5t92.5 -31.5q33 0 69.5 16.5t65.5 48.5v311q-29 8 -61 12.5t-61 4.5q-57 0 -96.5 -34t-39.5 -102v-124z" />
    <glyph glyph-name="acircumflex.ss01" horiz-adv-x="541" 
d="M131 598q-8 0 -10 4t3 10l113 133q7 7 14 7h43q9 0 14 -7l112 -133q5 -6 3.5 -10t-8.5 -4h-52q-9 0 -14 7l-76 91l-78 -91q-7 -7 -14 -7h-50zM397 57q-29 -33 -69 -50.5t-84 -17.5q-40 0 -75 11.5t-61.5 36.5t-42 64t-15.5 94v124q0 52 18 91.5t48 65.5t70.5 39t85.5 13
q48 0 96 -9.5t96 -26.5q9 -3 9 -13v-468q0 -11 -11 -11h-49q-10 0 -12 11zM133 195q0 -70 30.5 -101.5t92.5 -31.5q33 0 69.5 16.5t65.5 48.5v311q-29 8 -61 12.5t-61 4.5q-57 0 -96.5 -34t-39.5 -102v-124z" />
    <glyph glyph-name="adieresis.ss01" horiz-adv-x="541" 
d="M224 663q0 -22 -13 -34.5t-34 -12.5q-20 0 -33.5 12.5t-13.5 34.5q0 23 13.5 35.5t33.5 12.5q21 0 34 -12.5t13 -35.5zM416 663q0 -22 -13.5 -34.5t-33.5 -12.5q-21 0 -34.5 12.5t-13.5 34.5q0 23 13.5 35.5t34.5 12.5q20 0 33.5 -12.5t13.5 -35.5zM397 57
q-29 -33 -69 -50.5t-84 -17.5q-40 0 -75 11.5t-61.5 36.5t-42 64t-15.5 94v124q0 52 18 91.5t48 65.5t70.5 39t85.5 13q48 0 96 -9.5t96 -26.5q9 -3 9 -13v-468q0 -11 -11 -11h-49q-10 0 -12 11zM133 195q0 -70 30.5 -101.5t92.5 -31.5q33 0 69.5 16.5t65.5 48.5v311
q-29 8 -61 12.5t-61 4.5q-57 0 -96.5 -34t-39.5 -102v-124z" />
    <glyph glyph-name="agrave.ss01" horiz-adv-x="541" 
d="M314.001 598q7 0 9.99902 4q3 4 -1 10l-80.9941 133q-5 7 -14 7h-62.9961q-15.999 0 -5.99902 -14l95.9941 -133q4.99902 -7 13.999 -7h44.9971zM397 57q-29 -33 -69 -50.5t-84 -17.5q-40 0 -75 11.5t-61.5 36.5t-42 64t-15.5 94v124q0 52 18 91.5t48 65.5t70.5 39
t85.5 13q48 0 96 -9.5t96 -26.5q9 -3 9 -13v-468q0 -11 -11 -11h-49q-10 0 -12 11zM133 195q0 -70 30.5 -101.5t92.5 -31.5q33 0 69.5 16.5t65.5 48.5v311q-29 8 -61 12.5t-61 4.5q-57 0 -96.5 -34t-39.5 -102v-124z" />
    <glyph glyph-name="amacron.ss01" horiz-adv-x="541" 
d="M137 675q0 12 11 12h252q11 0 11 -12v-43q0 -11 -11 -11h-252q-11 0 -11 11v43zM397 57q-29 -33 -69 -50.5t-84 -17.5q-40 0 -75 11.5t-61.5 36.5t-42 64t-15.5 94v124q0 52 18 91.5t48 65.5t70.5 39t85.5 13q48 0 96 -9.5t96 -26.5q9 -3 9 -13v-468q0 -11 -11 -11h-49
q-10 0 -12 11zM133 195q0 -70 30.5 -101.5t92.5 -31.5q33 0 69.5 16.5t65.5 48.5v311q-29 8 -61 12.5t-61 4.5q-57 0 -96.5 -34t-39.5 -102v-124z" />
    <glyph glyph-name="aogonek.ss01" horiz-adv-x="541" 
d="M495 -183q-17 -8 -41.5 -12.5t-44.5 -4.5q-42 0 -67 22t-25 59q0 34 23 65t64 57l-7 54q-29 -31 -69 -49.5t-87 -18.5q-38 0 -72.5 12t-61 37t-42 64t-15.5 93v124q0 52 17.5 91.5t48 65.5t71.5 39t88 13q44 0 92.5 -9.5t96.5 -26.5q9 -3 9 -13v-465q0 -8 -5 -11t-16 -7
q-31 -14 -47 -37t-16 -48q0 -21 11 -30t31 -9q24 0 48 8q11 3 14 -8l9 -41q3 -10 -7 -14zM133 195q0 -132 119 -132q41 0 75.5 17.5t63.5 46.5v310q-29 9 -61 13.5t-56 4.5q-63 0 -102 -34t-39 -102v-124z" />
    <glyph glyph-name="aring.ss01" horiz-adv-x="541" 
d="M379 686q0 -48 -30 -75t-75 -27q-48 0 -78.5 27.5t-30.5 75.5q0 47 30.5 74.5t78.5 27.5q45 0 75 -27.5t30 -75.5zM215 686q0 -24 16 -39t42 -15q25 0 40.5 15t15.5 39q0 25 -15.5 40t-40.5 15q-26 0 -42 -15t-16 -40zM397 57q-29 -33 -69 -50.5t-84 -17.5
q-40 0 -75 11.5t-61.5 36.5t-42 64t-15.5 94v124q0 52 18 91.5t48 65.5t70.5 39t85.5 13q48 0 96 -9.5t96 -26.5q9 -3 9 -13v-468q0 -11 -11 -11h-49q-10 0 -12 11zM133 195q0 -70 30.5 -101.5t92.5 -31.5q33 0 69.5 16.5t65.5 48.5v311q-29 8 -61 12.5t-61 4.5
q-57 0 -96.5 -34t-39.5 -102v-124z" />
    <glyph glyph-name="atilde.ss01" horiz-adv-x="541" 
d="M428 681q-4 -12 -11.5 -25t-18.5 -23.5t-25 -17.5t-30 -7q-17 0 -35.5 7.5t-35.5 16.5t-31.5 16.5t-28.5 7.5q-16 0 -25.5 -10t-15.5 -24q-4 -7 -8 -7t-8 2l-33 19q-10 6 -5 15q4 12 12 24t18.5 22.5t24 17t29.5 6.5q19 0 37.5 -7.5t35.5 -17.5q14 -8 30.5 -15.5
t30.5 -7.5t22 8.5t17 25.5q5 11 15 5l33 -18q9 -5 6 -13zM397 57q-29 -33 -69 -50.5t-84 -17.5q-40 0 -75 11.5t-61.5 36.5t-42 64t-15.5 94v124q0 52 18 91.5t48 65.5t70.5 39t85.5 13q48 0 96 -9.5t96 -26.5q9 -3 9 -13v-468q0 -11 -11 -11h-49q-10 0 -12 11zM133 195
q0 -70 30.5 -101.5t92.5 -31.5q33 0 69.5 16.5t65.5 48.5v311q-29 8 -61 12.5t-61 4.5q-57 0 -96.5 -34t-39.5 -102v-124z" />
    <glyph glyph-name="ae.ss01" horiz-adv-x="850" 
d="M792 61q-37 -31 -85 -51.5t-111 -20.5q-37 0 -71 16t-60 45l-3 -39q0 -11 -12 -11h-38q-12 0 -12 11l-5 43q-29 -32 -69 -48.5t-88 -16.5q-38 0 -72 11.5t-60 36.5t-41 64t-15 94v124q0 52 17.5 91.5t47.5 65.5t69.5 39t84.5 13q38 0 79.5 -11t82.5 -45q29 21 71 38.5
t96 17.5q40 0 77.5 -12t66 -36.5t45.5 -62t17 -88.5v-98q0 -12 -11 -12h-323v-84q19 -35 46 -54t82 -19q52 0 87 17t64 39q10 6 16 -3l29 -38q8 -8 -2 -16zM132 195q0 -70 29.5 -101.5t89.5 -31.5q36 0 72 18t64 55v265q-9 15 -23.5 25.5t-31.5 17t-34.5 9.5t-31.5 3
q-28 0 -52.5 -8.5t-42.5 -25.5t-28.5 -42.5t-10.5 -59.5v-124zM470 287h254v42q0 64 -36.5 94.5t-89.5 30.5q-28 0 -49 -5t-36 -12.5t-25.5 -17t-17.5 -19.5v-113z" />
    <glyph glyph-name="uni0410" unicode="&#x410;" horiz-adv-x="619" 
d="M18 0q-12 0 -9 13l249 693q3 9 12 9h79q10 0 13 -9l248 -693q5 -13 -9 -13h-67q-10 0 -13 9l-61 178h-300l-62 -178q-3 -9 -13 -9h-67zM186 266h248l-122 354h-4z" />
    <glyph glyph-name="uni0411" unicode="&#x411;" horiz-adv-x="636" 
d="M347 432q125 0 185.5 -51t60.5 -163q0 -55 -17.5 -96t-49 -68t-76 -40.5t-98.5 -13.5h-251q-12 0 -12 11v693q0 11 12 11h427q12 0 12 -11v-56q0 -11 -12 -11h-353v-205h172zM349 78q75 0 116 32.5t41 107.5q0 69 -36.5 102.5t-121.5 33.5h-173v-276h174z" />
    <glyph glyph-name="uni0412" unicode="&#x412;" horiz-adv-x="637" 
d="M558 527q0 -51 -23 -89t-62 -57q56 -20 85.5 -65.5t29.5 -108.5q0 -98 -64 -152.5t-182 -54.5h-241q-12 0 -12 11v693q0 11 12 11h242q108 0 161.5 -51.5t53.5 -136.5zM343 77q74 0 116.5 31.5t42.5 98.5q0 60 -37 96t-116 36h-175v-262h169zM472 527q0 51 -32.5 81
t-96.5 30h-169v-222h175q55 0 89 27t34 84z" />
    <glyph glyph-name="uni0413" unicode="&#x413;" horiz-adv-x="510" 
d="M101 0q-12 0 -12 11v693q0 11 12 11h385q12 0 12 -11v-56q0 -11 -12 -11h-311v-626q0 -11 -12 -11h-62z" />
    <glyph glyph-name="uni0403" unicode="&#x403;" horiz-adv-x="510" 
d="M101 0q-12 0 -12 11v693q0 11 12 11h385q12 0 12 -11v-56q0 -11 -12 -11h-311v-626q0 -11 -12 -11h-62zM287 792q-6 -7 -14 -7h-52q-16 0 -7 14l105 133q4 7 13 7h70q7 0 9 -4.5t-3 -9.5z" />
    <glyph glyph-name="uni0490" unicode="&#x490;" horiz-adv-x="493" 
d="M101 0q-12 0 -12 11v693q0 11 12 11h299v143q0 11 12 11h57q12 0 12 -11v-210q0 -11 -12 -11h-294v-626q0 -11 -12 -11h-62z" />
    <glyph glyph-name="uni0414" unicode="&#x414;" horiz-adv-x="687" 
d="M23 -137q-12 0 -12 12v193q0 11 12 11h28q27 9 47 40.5t34 101.5t24.5 186.5t19.5 295.5q0 12 12 12h377q12 0 12 -11v-625h59q12 0 12 -11v-193q0 -12 -12 -12h-61q-12 0 -12 12v125h-467v-125q0 -12 -12 -12h-61zM259 637q-4 -123 -10 -215.5t-16 -159.5t-25 -111.5
t-36 -71.5h319v558h-232z" />
    <glyph glyph-name="uni0415" unicode="&#x415;" 
d="M175 78h344q11 0 11 -11v-56q0 -11 -11 -11h-418q-12 0 -12 11v693q0 11 12 11h404q11 0 11 -11v-56q0 -11 -11 -11h-330v-234h307q11 0 11 -12v-55q0 -12 -11 -12h-307v-246z" />
    <glyph glyph-name="uni0401" unicode="&#x401;" 
d="M261 857q0 -22 -14 -36t-35 -14q-22 0 -36 14t-14 36t14 36t36 14q21 0 35 -14t14 -36zM465 857q0 -22 -14 -36t-36 -14q-23 0 -36.5 14t-13.5 36t13.5 36t36.5 14q22 0 36 -14t14 -36zM175 78h344q11 0 11 -11v-56q0 -11 -11 -11h-418q-12 0 -12 11v693q0 11 12 11h404
q11 0 11 -11v-56q0 -11 -11 -11h-330v-234h307q11 0 11 -12v-55q0 -12 -11 -12h-307v-246z" />
    <glyph glyph-name="uni0416" unicode="&#x416;" horiz-adv-x="917" 
d="M816 0q-9 0 -13 7l-239 326l-63 -71v-251q0 -11 -12 -11h-61q-12 0 -12 11v251l-63 71l-239 -326q-4 -7 -14 -7h-80q-7 0 -9.5 4t2.5 10l286 382l-265 305q-5 6 -3 10t10 4h79q10 0 14 -7l282 -339v335q0 11 12 11h61q12 0 12 -11v-335q8 9 16.5 20t21.5 26.5t32.5 38.5
t48 57.5t68.5 82.5l95 114q4 7 14 7h79q8 0 9.5 -4t-3.5 -10l-264 -305l286 -382q5 -6 2.5 -10t-9.5 -4h-81z" />
    <glyph glyph-name="uni0417" unicode="&#x417;" horiz-adv-x="590" 
d="M517 529q-1 -48 -26 -90t-76 -60q60 -21 90.5 -67.5t30.5 -104.5q0 -53 -19 -93.5t-53 -68.5t-80.5 -42t-101.5 -14q-85 0 -146 24t-103 62q-8 8 -2 17l33 47q7 10 15 2q34 -30 84 -51t119 -21q37 0 67.5 9.5t52.5 27.5t34 43.5t12 57.5q0 26 -9.5 49t-30.5 40t-53.5 27
t-77.5 10h-97q-11 0 -11 11v55q0 11 11 11h100q38 0 66.5 9.5t47 26t27.5 37.5t9 44q0 49 -38.5 84t-112.5 35q-66 0 -110 -19t-75 -46q-10 -8 -17 2l-32 45q-6 9 1 17q41 36 97.5 58.5t135.5 22.5q55 0 99.5 -15.5t75 -42.5t47 -63t16.5 -76z" />
    <glyph glyph-name="uni0418" unicode="&#x418;" horiz-adv-x="704" 
d="M542 0q-12 0 -12 11v303q0 60 2 130t4 130l-2 2q-19 -36 -42 -76.5t-45 -75.5l-263 -417q-4 -7 -14 -7h-70q-11 0 -11 11v693q0 11 11 11h62q11 0 11 -11v-303q0 -63 -1.5 -134.5t-4.5 -134.5l3 -3q19 35 41.5 73t42.5 73l265 432q5 8 14 8h70q12 0 12 -11v-693
q0 -11 -12 -11h-61z" />
    <glyph glyph-name="uni0419" unicode="&#x419;" horiz-adv-x="704" 
d="M519 910q-8 -61 -49 -99.5t-114 -38.5t-114 38.5t-49 98.5q-1 10 10 13l44 11q10 1 13 -9q7 -40 30.5 -62t65.5 -22t66 22t30 62q3 10 13 9l44 -11q11 -3 10 -12zM603.006 0q12 0 12 11v693q0 11 -12 11h-69.9951q-9 0 -13.999 -8l-264.984 -432
q-19.999 -35 -42.4971 -73q-22.499 -38 -41.498 -73l-2.99902 1q1.99902 31 2.99902 65.5t1.5 69.5t1 69.5t0.5 66.5v303q0 11 -10.999 11h-61.9961q-11 0 -11 -11v-693q0 -11 11 -11h69.9951q10 0 13.999 7l262.984 417q21.999 35 44.9971 75.5q22.999 40.5 41.998 76.5
l1.99902 -1q-1.99902 -60 -3.99902 -130.5t-2 -130.5v-303q0 -11 11.999 -11h60.9961z" />
    <glyph glyph-name="uni041A" unicode="&#x41a;" horiz-adv-x="614" 
d="M101 0q-12 0 -12 11v693q0 11 12 11h62q11 0 11 -11v-331l309 335q7 7 15 7h80q8 0 10 -4.5t-3 -9.5l-287 -308l307 -379q5 -6 2.5 -10t-9.5 -4h-81q-10 0 -14 7l-262 326l-67 -69v-253q0 -11 -11 -11h-62z" />
    <glyph glyph-name="uni040C" unicode="&#x40c;" horiz-adv-x="614" 
d="M333 792q-6 -7 -14 -7h-52q-16 0 -7 14l105 133q4 7 13 7h70q7 0 9 -4.5t-3 -9.5zM101 0q-12 0 -12 11v693q0 11 12 11h62q11 0 11 -11v-331l309 335q7 7 15 7h80q8 0 10 -4.5t-3 -9.5l-287 -308l307 -379q5 -6 2.5 -10t-9.5 -4h-81q-10 0 -14 7l-262 326l-67 -69v-253
q0 -11 -11 -11h-62z" />
    <glyph glyph-name="uni041B" unicode="&#x41b;" horiz-adv-x="664" 
d="M212 220q-11 -61 -26.5 -103t-39 -68.5t-54.5 -38.5t-71 -13q-11 0 -11 11v57q0 11 11 11q24 1 41 9.5t30 27.5t22 49.5t17 77.5q11 68 19 180.5t13 283.5q0 11 11 11h390q11 0 11 -11v-693q0 -11 -11 -11h-63q-11 0 -11 11v625h-246q-4 -143 -12.5 -245t-19.5 -171z" />
    <glyph glyph-name="uni041C" unicode="&#x41c;" horiz-adv-x="853" 
d="M101 0q-12 0 -12 11v693q0 11 12 11h76q9 0 13 -8l155 -282q9 -17 20.5 -38.5t22.5 -43.5t20.5 -42t16.5 -34h3q7 14 16.5 34t20.5 42t22.5 43t20.5 38l156 283q3 8 13 8h76q11 0 11 -11v-693q0 -11 -11 -11h-63q-11 0 -11 11v302q0 63 2 135t4 136l-2 1
q-20 -41 -43 -84.5t-48 -91.5l-125 -232q-5 -8 -14 -8h-53q-10 0 -13 8l-125 232q-26 48 -48.5 91.5t-42.5 84.5l-2 -1q2 -64 3.5 -136t1.5 -135v-302q0 -11 -11 -11h-62z" />
    <glyph glyph-name="uni041D" unicode="&#x41d;" horiz-adv-x="682" 
d="M508 704q0 11 12 11h62q11 0 11 -11v-693q0 -11 -11 -11h-62q-12 0 -12 11v313h-334v-313q0 -11 -11 -11h-62q-12 0 -12 11v693q0 11 12 11h62q11 0 11 -11v-302h334v302z" />
    <glyph glyph-name="uni041E" unicode="&#x41e;" horiz-adv-x="674" 
d="M610 251q0 -60 -19 -108.5t-54 -82.5t-86 -52.5t-114 -18.5t-114 18.5t-86 52.5t-54 82.5t-19 108.5v211q0 61 19 110t54 83.5t86 52.5t114 18t114 -18t86 -52.5t54 -83.5t19 -110v-211zM150 251q0 -85 48.5 -133t138.5 -48t138 48t48 133v211q0 88 -48 136.5t-138 48.5
t-138.5 -48.5t-48.5 -136.5v-211z" />
    <glyph glyph-name="uni041F" unicode="&#x41f;" horiz-adv-x="685" 
d="M101 0q-12 0 -12 11v693q0 11 12 11h483q12 0 12 -11v-693q0 -11 -12 -11h-63q-11 0 -11 11v626h-335v-626q0 -11 -11 -11h-63z" />
    <glyph glyph-name="uni0420" unicode="&#x420;" horiz-adv-x="625" 
d="M341 715q119 0 183.5 -62t64.5 -172q0 -112 -65 -173.5t-183 -61.5h-167v-235q0 -11 -11 -11h-63q-11 0 -11 11v693q0 11 11 11h241zM332 325q171 0 171 156q0 155 -171 155h-158v-311h158z" />
    <glyph glyph-name="uni0421" unicode="&#x421;" horiz-adv-x="587" 
d="M555 65q-48 -40 -107.5 -58t-119.5 -18q-55 0 -103 15.5t-83.5 46.5t-56 77t-20.5 108v242q0 62 20.5 108.5t56 77.5t83 46.5t101.5 15.5q57 0 111.5 -17.5t101.5 -52.5q8 -6 2 -15l-32 -47q-6 -8 -17 -2q-37 27 -80.5 40.5t-86.5 13.5q-85 0 -130 -45.5t-45 -122.5v-241
q0 -77 45.5 -122.5t130.5 -45.5q49 0 96.5 15.5t87.5 46.5q8 8 15 -3l33 -46q6 -11 -3 -17z" />
    <glyph glyph-name="uni0422" unicode="&#x422;" horiz-adv-x="561" 
d="M537 715q12 0 12 -11v-56q0 -11 -12 -11h-214v-626q0 -11 -12 -11h-62q-12 0 -12 11v626h-214q-11 0 -11 11v56q0 11 11 11h514z" />
    <glyph glyph-name="uni0423" unicode="&#x423;" horiz-adv-x="546" 
d="M150 0q-6 0 -8 4t0 9l98 214l-232 475q-2 5 0 9t8 4h70q10 0 14 -9l183 -390l166 390q3 9 13 9h69q6 0 8.5 -4t0.5 -9l-307 -693q-5 -9 -14 -9h-69z" />
    <glyph glyph-name="uni040E" unicode="&#x40e;" horiz-adv-x="546" 
d="M150 0q-6 0 -8 4t0 9l98 214l-232 475q-2 5 0 9t8 4h70q10 0 14 -9l183 -390l166 390q3 9 13 9h69q6 0 8.5 -4t0.5 -9l-307 -693q-5 -9 -14 -9h-69zM438 910q-8 -61 -49 -99.5t-114 -38.5t-114 38.5t-49 98.5q-1 10 10 13l44 11q10 1 13 -9q7 -40 30.5 -62t65.5 -22
t66 22t30 62q3 10 13 9l44 -11q11 -3 10 -12z" />
    <glyph glyph-name="uni0424" unicode="&#x424;" horiz-adv-x="857" 
d="M397 -66q-11 0 -11 11v77h-59q-50 0 -97.5 15.5t-85 48t-60 84t-22.5 123.5v126q0 72 22.5 123t60 84t85 48t97.5 15h59v71q0 12 11 12h63q11 0 11 -12v-71h59q50 0 97.5 -15t85 -48t60 -84t22.5 -123v-126q0 -72 -22.5 -123.5t-60 -84t-85 -48t-97.5 -15.5h-59v-77
q0 -11 -11 -11h-63zM150 293q0 -52 15 -88t40 -59t58 -33.5t68 -10.5h55v507h-55q-35 0 -68 -9.5t-58 -32t-40 -59t-15 -89.5v-126zM471 102h55q35 0 68 10.5t58.5 33.5t40.5 59t15 88v126q0 53 -15 89.5t-40.5 59t-58.5 32t-68 9.5h-55v-507z" />
    <glyph glyph-name="uni0425" unicode="&#x425;" horiz-adv-x="590" 
d="M569 14q4 -5 2 -9.5t-9 -4.5h-77q-9 0 -14 8l-175 284l-176 -284q-5 -8 -14 -8h-77q-7 0 -9.5 4.5t1.5 9.5l225 345l-214 342q-4 5 -1.5 9.5t9.5 4.5h76q8 0 13 -8l167 -279l166 279q5 8 13 8h76q6 0 8.5 -4.5t-1.5 -9.5l-213 -342z" />
    <glyph glyph-name="uni0427" unicode="&#x427;" horiz-adv-x="630" 
d="M466 0q-11 0 -11 11v271q-38 -17 -76.5 -26t-78.5 -9q-54 0 -99.5 14.5t-78.5 44t-51.5 73t-18.5 101.5v224q0 11 11 11h64q11 0 11 -11v-220q0 -41 13 -70.5t35.5 -49t53.5 -28.5t67 -9q38 0 76.5 10t71.5 27v340q0 11 11 11h63q12 0 12 -11v-693q0 -11 -12 -11h-63z
" />
    <glyph glyph-name="uni0426" unicode="&#x426;" horiz-adv-x="697" 
d="M588 -131q-11 0 -11 11v120h-476q-12 0 -12 11v693q0 11 12 11h62q11 0 11 -11v-625h328v625q0 11 11 11h62q12 0 12 -11v-625h60q12 0 12 -11v-188q0 -11 -12 -11h-59z" />
    <glyph glyph-name="uni0428" unicode="&#x428;" horiz-adv-x="954" 
d="M100 0q-11 0 -11 11v693q0 11 11 11h63q12 0 12 -11v-625h259v625q0 11 11 11h63q12 0 12 -11v-625h259v625q0 11 12 11h63q11 0 11 -11v-693q0 -11 -11 -11h-754z" />
    <glyph glyph-name="uni0429" unicode="&#x429;" horiz-adv-x="974" 
d="M866 -131q-12 0 -12 11v120h-753q-12 0 -12 11v693q0 11 12 11h63q11 0 11 -11v-625h259v625q0 11 11 11h63q12 0 12 -11v-625h258v625q0 11 12 11h63q11 0 11 -11v-625h61q11 0 11 -11v-188q0 -11 -11 -11h-59z" />
    <glyph glyph-name="uni040F" unicode="&#x40f;" horiz-adv-x="684" 
d="M584 715q11 0 11 -11v-693q0 -11 -11 -11h-201v-123q0 -12 -11 -12h-59q-11 0 -11 12v123h-201q-12 0 -12 11v693q0 11 12 11h62q12 0 12 -11v-626h335v626q0 11 11 11h63z" />
    <glyph glyph-name="uni042C" unicode="&#x42c;" horiz-adv-x="617" 
d="M101 0q-12 0 -12 11v693q0 11 12 11h63q11 0 11 -11v-247h158q120 0 184.5 -59.5t64.5 -166.5q0 -110 -63.5 -170.5t-181.5 -60.5h-236zM175 80h162q81 0 119 37.5t38 113.5q0 73 -38 109.5t-119 36.5h-162v-297z" />
    <glyph glyph-name="uni042A" unicode="&#x42a;" horiz-adv-x="692" 
d="M176 0q-11 0 -11 11v624h-138q-11 0 -11 12v57q0 11 11 11h212q12 0 12 -11v-248h157q118 0 183.5 -55.5t65.5 -169.5q0 -113 -66.5 -172t-178.5 -59h-236zM251 80h162q75 0 115.5 36.5t40.5 114.5q0 69 -38 107.5t-122 38.5h-158v-297z" />
    <glyph glyph-name="uni042B" unicode="&#x42b;" horiz-adv-x="874" 
d="M101 0q-12 0 -12 11v693q0 11 12 11h63q11 0 11 -11v-247h158q120 0 184.5 -59.5t64.5 -167.5q0 -109 -63.5 -169.5t-181.5 -60.5h-236zM711 0q-12 0 -12 11v693q0 11 12 11h63q11 0 11 -11v-693q0 -11 -11 -11h-63zM175 80h162q81 0 119 37.5t38 112.5q0 73 -38 110
t-119 37h-162v-297z" />
    <glyph glyph-name="uni0409" unicode="&#x409;" horiz-adv-x="997" 
d="M208 156q-12 -44 -29.5 -74.5t-40.5 -49.5t-52 -27t-66 -8q-11 0 -11 11v57q0 11 11 11q21 0 38 6t30.5 19t23.5 35.5t18 55.5t14.5 79.5t11.5 108.5t9.5 142t8.5 181q1 12 12 12h374q11 0 11 -11v-254h142q118 0 183.5 -55.5t65.5 -168.5q0 -55 -17.5 -97.5t-49.5 -71
t-77 -43t-101 -14.5h-220q-12 0 -12 11v625h-228q-6 -172 -16.5 -289.5t-32.5 -190.5zM571 80h146q76 0 116.5 35t40.5 111q0 69 -38 106.5t-122 37.5h-143v-290z" />
    <glyph glyph-name="uni040A" unicode="&#x40a;" horiz-adv-x="990" 
d="M100 0q-11 0 -11 11v693q0 11 11 11h63q12 0 12 -11v-276h311v276q0 11 11 11h63q12 0 12 -11v-276h134q120 0 185.5 -51.5t65.5 -159.5q0 -53 -18 -93.5t-50 -68t-77.5 -41.5t-100.5 -14h-214q-11 0 -11 11v338h-311v-338q0 -11 -12 -11h-63zM572 80h140q73 0 115 32.5
t42 104.5q0 64 -39 97.5t-123 33.5h-135v-268z" />
    <glyph glyph-name="uni0405" unicode="&#x405;" horiz-adv-x="612" 
d="M567 194q0 -54 -21 -92.5t-57 -63.5t-83.5 -37t-100.5 -12q-74 0 -132.5 23.5t-117.5 71.5q-8 7 -2 16l34 47q7 10 15 3q52 -39 100.5 -59t105.5 -21q34 0 65.5 7t55.5 22t38 38t14 55q0 31 -13 52.5t-37.5 36.5t-59 25.5t-77.5 19.5q-45 10 -88 25.5t-76.5 40t-54 60
t-20.5 85.5q0 49 20.5 85t55.5 59t81.5 34t97.5 11q67 0 121.5 -19t111.5 -61q10 -6 3 -15l-33 -47q-6 -9 -16 -2q-90 62 -194 65q-72 0 -117 -28.5t-45 -83.5q0 -29 12.5 -49t35.5 -34t55.5 -24.5t71.5 -19.5q50 -11 95.5 -26t80 -39t55 -60t20.5 -89z" />
    <glyph glyph-name="uni0404" unicode="&#x404;" horiz-adv-x="591" 
d="M555 65q-48 -40 -107.5 -58t-119.5 -18q-55 0 -103 15.5t-83.5 46t-56 77t-20.5 108.5v242q0 62 20.5 108.5t56 77.5t83 46.5t101.5 15.5q57 0 111.5 -17.5t101.5 -52.5q8 -6 2 -15l-32 -47q-6 -8 -17 -2q-37 27 -80.5 40.5t-86.5 13.5q-85 0 -130 -45.5t-45 -122.5v-82
h273q12 0 12 -12v-57q0 -12 -12 -12h-273v-78q0 -77 45.5 -122.5t130.5 -45.5q49 0 96.5 15.5t87.5 46.5q8 8 15 -3l33 -46q6 -11 -3 -17z" />
    <glyph glyph-name="uni042D" unicode="&#x42d;" horiz-adv-x="591" 
d="M36.0342 65q47.9971 -40 107.493 -58t119.492 -18q54.9971 0 102.994 15.5t83.4951 46t55.9961 77q20.499 46.5 20.499 108.5v242q0 62 -20.499 108.5q-20.498 46.5 -55.9961 77.5t-82.9951 46.5t-101.494 15.5q-56.9961 0 -111.493 -17.5q-54.4961 -17.5 -101.493 -52.5
q-8 -6 -2 -15l31.998 -47q5.99902 -8 16.999 -2q36.9971 27 80.4951 40.5q43.4971 13.5 86.4941 13.5q84.9951 0 129.992 -45.5t44.9971 -122.5v-82h-272.983q-11.999 0 -11.999 -12v-57q0 -12 11.999 -12h272.983v-78q0 -77 -45.4971 -122.5t-130.492 -45.5
q-48.9971 0 -96.4941 15.5t-87.4941 46.5q-8 8 -14.999 -3l-32.998 -46q-6 -11 3 -17z" />
    <glyph glyph-name="uni0406" unicode="&#x406;" horiz-adv-x="263" 
d="M174 11q0 -11 -11 -11h-62q-12 0 -12 11v693q0 11 12 11h62q11 0 11 -11v-693z" />
    <glyph glyph-name="uni0407" unicode="&#x407;" horiz-adv-x="263" 
d="M174 11q0 -11 -11 -11h-63q-11 0 -11 11v693q0 11 11 11h63q11 0 11 -11v-693zM93 857q0 -22 -14 -35.5t-35 -13.5q-22 0 -35.5 13.5t-13.5 35.5t13.5 36t35.5 14q21 0 35 -14t14 -36zM270 857q0 -22 -14 -35.5t-36 -13.5t-36 13.5t-14 35.5t14 36t36 14t36 -14t14 -36z
" />
    <glyph glyph-name="uni0408" unicode="&#x408;" horiz-adv-x="506" 
d="M421 228q0 -58 -15.5 -102.5t-43.5 -75t-66 -46t-84 -15.5q-61 0 -107 20t-90 58q-9 6 -2 16l28 46q6 10 16 2q35 -28 71.5 -44.5t83.5 -16.5q58 0 91 37.5t33 121.5v475q0 11 12 11h62q11 0 11 -11v-476v0z" />
    <glyph glyph-name="uni040B" unicode="&#x40b;" horiz-adv-x="716" 
d="M318 495q26 11 57.5 17.5t66.5 6.5q47 0 87 -12.5t69.5 -38.5t46 -67.5t16.5 -99.5v-290q0 -11 -11 -11h-62q-9 0 -11 11v284q0 82 -36.5 114.5t-103.5 32.5q-34 0 -64.5 -7t-54.5 -19v-405q0 -11 -12 -11h-62q-12 0 -12 11v626h-209q-11 0 -11 11v56q0 11 11 11h503
q12 0 12 -11v-56q0 -11 -12 -11h-208v-142v0z" />
    <glyph glyph-name="uni042E" unicode="&#x42e;" horiz-adv-x="904" 
d="M839 237q0 -62 -21.5 -108.5t-57.5 -77.5t-83.5 -46.5t-99.5 -15.5q-53 0 -100.5 15.5t-83.5 46.5t-57.5 77.5t-21.5 108.5v90h-140v-316q0 -11 -11 -11h-63q-11 0 -11 11v693q0 11 11 11h63q11 0 11 -11v-298h140v71q0 63 21.5 109.5t57.5 77.5t83.5 46.5t100.5 15.5
q52 0 99.5 -15.5t83.5 -46.5t57.5 -77.5t21.5 -109.5v-240zM401 237q0 -42 14 -73.5t38 -52.5t56 -31.5t68 -10.5t68 10.5t55.5 31.5t37.5 52.5t14 73.5v240q0 44 -13.5 76t-37.5 52.5t-56 30.5t-68 10q-37 0 -69 -10t-56 -30.5t-37.5 -52.5t-13.5 -76v-240z" />
    <glyph glyph-name="uni042F" unicode="&#x42f;" horiz-adv-x="644" 
d="M55 491q0 106 64.5 165t181.5 59h242q11 0 11 -11v-693q0 -11 -11 -11h-62q-12 0 -12 11v259h-140l-192 -263q-6 -7 -14 -7h-80q-7 0 -9.5 4t2.5 10l200 264q-85 14 -133 69t-48 144zM469 349v286h-167q-78 0 -119 -37t-41 -108q0 -69 41 -105t119 -36h167z" />
    <glyph glyph-name="uni0402" unicode="&#x402;" horiz-adv-x="716" 
d="M322 495q27 11 58 17.5t67 6.5q47 0 87 -12.5t69.5 -38.5t46 -67.5t16.5 -99.5v-128q0 -91 -39.5 -137.5t-112.5 -46.5q-12 0 -25 0.5t-24 2.5t-11 13v52q0 13 13 11q10 -1 20 -1.5t19 -0.5q38 0 56.5 23.5t18.5 82.5v123q0 82 -36 114.5t-103 32.5q-33 0 -64 -7t-56 -19
v-405q0 -11 -11 -11h-63q-11 0 -11 11v626h-214q-11 0 -11 11v56q0 11 11 11h513q12 0 12 -11v-56q0 -11 -12 -11h-214v-142v0z" />
    <glyph glyph-name="uni0414.loclBGR" horiz-adv-x="675" 
d="M28 -137q-11 0 -11 12v193q0 12 11 12h48l200 625q3 10 13 10h98q10 0 13 -10l199 -625h48q11 0 11 -12v-193q0 -12 -11 -12h-66q-12 0 -12 12v125h-468v-125q0 -12 -11 -12h-62zM166 80h343l-169 538h-4z" />
    <glyph glyph-name="uni041B.loclBGR" horiz-adv-x="624" 
d="M18 0q-12 0 -9 13l248 693q3 9 13 9h85q10 0 13 -9l247 -693q5 -13 -9 -13h-67q-12 0 -13 9l-149 425l-63 187h-3l-63 -186l-149 -426q-3 -9 -13 -9h-68z" />
    <glyph glyph-name="uni0430" unicode="&#x430;" horiz-adv-x="511" 
d="M61 476q35 24 83 38t106 14q93 0 146 -48.5t53 -145.5v-300q0 -10 -9 -13q-35 -13 -85.5 -22.5t-107.5 -9.5q-42 0 -81 9t-68.5 28.5t-47.5 50.5t-18 76q0 40 15.5 69.5t44 49.5t68 30t87.5 10q31 0 62.5 -3.5t57.5 -8.5v32q0 61 -27 91.5t-93 30.5q-42 0 -79 -10.5
t-63 -26.5q-9 -6 -15 3l-29 42q-5 9 0 14zM114 153q0 -45 37.5 -68t95.5 -23q34 0 65.5 5.5t54.5 12.5v150q-24 5 -56.5 8.5t-63.5 3.5q-69 0 -101 -23.5t-32 -65.5z" />
    <glyph glyph-name="uni0431" unicode="&#x431;" horiz-adv-x="541" 
d="M147 456q28 17 63.5 26t72.5 9q46 0 84.5 -13t66 -39t43 -64.5t15.5 -89.5v-90q0 -52 -17.5 -91t-46.5 -64.5t-68.5 -38t-82.5 -12.5q-42 0 -80.5 12.5t-68 38t-46.5 64.5t-17 91v308q0 46 17 81.5t44.5 61t62 41t70.5 22.5q14 3 34 6t42 7.5t43.5 11t38.5 15.5
q11 5 15 -5l25 -44q5 -10 -4 -15q-17 -9 -39 -16.5t-44.5 -13t-43.5 -9.5t-37 -8q-29 -6 -54.5 -16.5t-45 -27t-31 -39.5t-11.5 -54v-45zM277 62q27 0 51 8t42 24.5t28.5 41.5t10.5 59v88q0 66 -33 101t-98 35q-32 0 -68 -9.5t-63 -26.5v-188q0 -34 10 -59t28 -41.5
t41.5 -24.5t50.5 -8z" />
    <glyph glyph-name="uni0432" unicode="&#x432;" horiz-adv-x="524" 
d="M80 0q-11 0 -11 11v494q0 12 11 12h204q43 0 76.5 -10.5t56 -28.5t34 -43t11.5 -53q0 -42 -20.5 -68.5t-54.5 -40.5q94 -34 94 -130q0 -63 -52 -103t-145 -40h-204zM151 298h130q45 0 72 19.5t27 57.5q0 35 -25 54.5t-74 19.5h-130v-151zM151 67h130q117 0 117 85
q0 43 -31 62.5t-86 19.5h-130v-167z" />
    <glyph glyph-name="uni0433" unicode="&#x433;" horiz-adv-x="406" 
d="M80 0q-11 0 -11 11v494q0 12 11 12h299q11 0 11 -12v-50q0 -12 -11 -12h-228v-432q0 -11 -12 -11h-59z" />
    <glyph glyph-name="uni0453" unicode="&#x453;" horiz-adv-x="406" 
d="M80 0q-11 0 -11 11v494q0 12 11 12h299q11 0 11 -12v-50q0 -12 -11 -12h-228v-432q0 -11 -12 -11h-59zM176 597q-7 0 -10 4t1 10l81 133q5 7 14 7h63q16 0 6 -14l-96 -133q-5 -7 -14 -7h-45z" />
    <glyph glyph-name="uni0491" unicode="&#x491;" horiz-adv-x="406" 
d="M315 625q0 11 11 11h53q11 0 11 -11v-170q0 -12 -11 -12h-228v-432q0 -11 -12 -11h-59q-11 0 -11 11v494q0 12 11 12h235v108z" />
    <glyph glyph-name="uni0434" unicode="&#x434;" horiz-adv-x="574" 
d="M30 -137q-11 0 -11 12v187q0 11 11 11h22q17 10 30 33.5t23.5 71.5t19 126.5t16.5 200.5q0 12 11 12h319q12 0 12 -12v-432h52q12 0 12 -11v-187q0 -12 -12 -12h-55q-12 0 -12 12v125h-371v-125q0 -12 -11 -12h-56zM217 443q-9 -159 -26 -248t-48 -122h258v370h-184z" />
    <glyph glyph-name="uni0435" unicode="&#x435;" horiz-adv-x="518" 
d="M472 231q0 -12 -11 -12h-327v-42q0 -57 37 -86t93 -29q52 0 88.5 17t64.5 39q10 6 16 -3l29 -38q7 -8 -2 -16q-38 -32 -86.5 -52t-111.5 -20q-41 0 -79 11.5t-67 35t-47 59t-18 82.5v152q0 51 17.5 88.5t47 62t68 36.5t79.5 12t78.5 -12t66.5 -36.5t46.5 -62t17.5 -88.5
v-98zM392 329q0 64 -37 94.5t-92 30.5q-57 0 -93 -30t-36 -95v-42h258v42z" />
    <glyph glyph-name="uni0451" unicode="&#x451;" horiz-adv-x="518" 
d="M212 662q0 -22 -13 -34.5t-34 -12.5q-20 0 -33.5 12.5t-13.5 34.5q0 23 13.5 35.5t33.5 12.5q21 0 34 -12.5t13 -35.5zM404 662q0 -22 -13.5 -34.5t-33.5 -12.5q-21 0 -34.5 12.5t-13.5 34.5q0 23 13.5 35.5t34.5 12.5q20 0 33.5 -12.5t13.5 -35.5zM472 231
q0 -12 -11 -12h-327v-42q0 -57 37 -86t93 -29q52 0 88.5 17t64.5 39q10 6 16 -3l29 -38q7 -8 -2 -16q-38 -32 -86.5 -52t-111.5 -20q-41 0 -79 11.5t-67 35t-47 59t-18 82.5v152q0 51 17.5 88.5t47 62t68 36.5t79.5 12t78.5 -12t66.5 -36.5t46.5 -62t17.5 -88.5v-98z
M392 329q0 64 -37 94.5t-92 30.5q-57 0 -93 -30t-36 -95v-42h258v42z" />
    <glyph glyph-name="uni0436" unicode="&#x436;" horiz-adv-x="730" 
d="M636 0q-10 0 -14 7l-159 229l-58 -65v-160q0 -11 -12 -11h-57q-11 0 -11 11v160l-58 65l-159 -229q-6 -7 -14 -7h-71q-16 0 -7 14l197 278l-179 211q-5 5 -3 9.5t9 4.5h72q9 0 14 -8l199 -240v236q0 12 11 12h57q12 0 12 -12v-236l199 240q5 8 14 8h71q8 0 10 -4.5
t-3 -9.5l-180 -211l198 -278q9 -14 -7 -14h-71z" />
    <glyph glyph-name="uni0437" unicode="&#x437;" horiz-adv-x="482" 
d="M421 379q0 -39 -18.5 -64.5t-50.5 -41.5q45 -16 66 -47t21 -75q0 -35 -15.5 -64.5t-42.5 -51.5t-65 -34t-83 -12q-56 0 -106 15.5t-99 59.5q-8 6 -1 15l31 39q8 8 17 1q33 -26 71.5 -41.5t83.5 -15.5q58 0 92 23.5t34 67.5q0 41 -29 61.5t-83 20.5h-100q-12 0 -12 12v40
q0 12 12 12h99q45 0 70.5 21t25.5 57q0 40 -31 59.5t-80 19.5q-46 0 -81.5 -14.5t-60.5 -34.5q-9 -9 -16 2l-30 38q-7 10 1 17q33 26 80.5 45t107.5 19q43 0 78 -11.5t60.5 -31.5t39.5 -47t14 -59z" />
    <glyph glyph-name="uni0438" unicode="&#x438;" horiz-adv-x="562" 
d="M80 0q-11 0 -11 11v494q0 12 11 12h59q11 0 11 -12v-266v-28.5t-0.5 -32t-0.5 -32.5v-29q6 11 17.5 31t24.5 42.5t25.5 43.5t20.5 33l161 242q5 8 14 8h70q11 0 11 -12v-494q0 -11 -11 -11h-58q-12 0 -12 11v258q0 26 0.5 62t1.5 63h-1q-6 -11 -17 -30.5t-23.5 -40.5
t-24.5 -41t-21 -33l-162 -242q-4 -7 -14 -7h-71z" />
    <glyph glyph-name="uni0439" unicode="&#x439;" horiz-adv-x="562" 
d="M80 0q-11 0 -11 11v494q0 12 11 12h59q11 0 11 -12v-266v-28.5t-0.5 -32t-0.5 -32.5v-29q6 11 17.5 31t24.5 42.5t25.5 43.5t20.5 33l161 242q5 8 14 8h70q11 0 11 -12v-494q0 -11 -11 -11h-58q-12 0 -12 11v258q0 26 0.5 62t1.5 63h-1q-6 -11 -17 -30.5t-23.5 -40.5
t-24.5 -41t-21 -33l-162 -242q-4 -7 -14 -7h-71zM432 733q-7 -60 -46.5 -97.5t-108.5 -37.5t-107 37t-46 97q-1 5 2 8.5t8 4.5l40 5q10 1 13 -9q7 -38 29 -59t61 -21q41 0 63 21t29 59q1 10 13 9l39 -5q12 -2 11 -12z" />
    <glyph glyph-name="uni045D" unicode="&#x45d;" horiz-adv-x="562" 
d="M80 0q-11 0 -11 11v494q0 12 11 12h59q11 0 11 -12v-266v-28.5t-0.5 -32t-0.5 -32.5v-29q6 11 17.5 31t24.5 42.5t25.5 43.5t20.5 33l161 242q5 8 14 8h70q11 0 11 -12v-494q0 -11 -11 -11h-58q-12 0 -12 11v258q0 26 0.5 62t1.5 63h-1q-6 -11 -17 -30.5t-23.5 -40.5
t-24.5 -41t-21 -33l-162 -242q-4 -7 -14 -7h-71zM321.001 598q7 0 9.99902 4q3 4 -1 10l-80.9941 133q-5 7 -14 7h-62.9961q-15.999 0 -5.99902 -14l95.9941 -133q4.99902 -7 13.999 -7h44.9971z" />
    <glyph glyph-name="uni043A" unicode="&#x43a;" horiz-adv-x="495" 
d="M410 0q-9 0 -15 7l-189 227l-57 -57v-166q0 -11 -12 -11h-57q-11 0 -11 11v494q0 12 11 12h57q12 0 12 -12v-227l230 233q5 6 14 6h72q7 0 9 -4.5t-3 -9.5l-210 -212l226 -277q5 -6 2.5 -10t-9.5 -4h-70z" />
    <glyph glyph-name="uni045C" unicode="&#x45c;" horiz-adv-x="495" 
d="M410 0q-9 0 -15 7l-189 227l-57 -57v-166q0 -11 -12 -11h-57q-11 0 -11 11v494q0 12 11 12h57q12 0 12 -12v-227l230 233q5 6 14 6h72q7 0 9 -4.5t-3 -9.5l-210 -212l226 -277q5 -6 2.5 -10t-9.5 -4h-70zM211 597q-7 0 -10 4t1 10l81 133q5 7 14 7h63q16 0 6 -14
l-96 -133q-5 -7 -14 -7h-45z" />
    <glyph glyph-name="uni043B" unicode="&#x43b;" horiz-adv-x="556" 
d="M190 178q-9 -51 -21 -85.5t-31 -55.5t-46 -30.5t-65 -10.5q-11 0 -11 11v51q0 10 11 12q16 1 29 6.5t23.5 19.5t18 38.5t13.5 63.5q7 48 13.5 121.5t11.5 185.5q0 12 12 12h327q12 0 12 -12v-494q0 -11 -12 -11h-59q-11 0 -11 11v432h-192q-4 -88 -11 -155.5t-12 -109.5z
" />
    <glyph glyph-name="uni043C" unicode="&#x43c;" horiz-adv-x="663" 
d="M80 0q-11 0 -11 11v494q0 12 11 12h68q8 0 13 -8l115 -211q16 -29 29 -55l26 -52h1q12 26 25 52t29 55l116 211q3 8 13 8h67q12 0 12 -12v-494q0 -11 -12 -11h-58q-11 0 -11 11v239v70t1 68h-1q-14 -29 -27.5 -57t-29.5 -57l-93 -173q-3 -8 -13 -8h-38q-9 0 -13 8
l-95 176q-15 29 -28 56t-27 55q0 -33 0.5 -68t0.5 -70v-239q0 -11 -11 -11h-59z" />
    <glyph glyph-name="uni043D" unicode="&#x43d;" horiz-adv-x="546" 
d="M80 0q-11 0 -11 11v494q0 12 11 12h59q12 0 12 -12v-200h244v200q0 12 11 12h59q12 0 12 -12v-494q0 -11 -12 -11h-59q-11 0 -11 11v221h-244v-221q0 -11 -12 -11h-59z" />
    <glyph glyph-name="uni043E" unicode="&#x43e;" horiz-adv-x="540" 
d="M490 185q0 -44 -15.5 -80t-44 -62t-69 -40t-91.5 -14t-91.5 14t-69 40t-44 62t-15.5 80v144q0 44 15.5 80.5t44 63t69 41t91.5 14.5t91.5 -14.5t69 -41t44 -63t15.5 -80.5v-144zM133 185q0 -57 35 -90t102 -33q68 0 103 33t35 90v144q0 57 -35 91t-103 34q-67 0 -102 -34
t-35 -91v-144z" />
    <glyph glyph-name="uni043F" unicode="&#x43f;" horiz-adv-x="546" 
d="M466 517q11 0 11 -12v-494q0 -11 -11 -11h-59q-12 0 -12 11v432h-244v-432q0 -11 -11 -11h-59q-12 0 -12 11v494q0 12 12 12h385z" />
    <glyph glyph-name="uni0440" unicode="&#x440;" horiz-adv-x="542" 
d="M76 492q43 17 94.5 26.5t99.5 9.5q49 0 90 -12.5t70.5 -39t46 -67.5t16.5 -98v-110q0 -51 -16 -90.5t-45 -66.5t-69.5 -41t-88.5 -14q-35 0 -66.5 8.5t-57.5 22.5v-199q0 -11 -12 -11h-59q-11 0 -11 11v658q0 10 8 13zM269 62q68 0 104.5 33t36.5 106v110q0 79 -37.5 112
t-104.5 33q-32 0 -63.5 -5t-54.5 -15v-338q24 -17 54 -26.5t65 -9.5z" />
    <glyph glyph-name="uni0441" unicode="&#x441;" horiz-adv-x="470" 
d="M442 47q-39 -29 -81.5 -43.5t-95.5 -14.5q-50 0 -89.5 14.5t-67.5 40t-42.5 61t-14.5 77.5v152q0 43 15 78.5t42.5 61t67 40t88.5 14.5q87 0 163 -50q10 -7 3 -17l-26 -41q-7 -9 -16 -3q-57 37 -122 37t-99 -33t-34 -87v-152q0 -54 34.5 -87t97.5 -33q69 0 134 44
q9 8 16 -2l29 -41q7 -10 -2 -16z" />
    <glyph glyph-name="uni0442" unicode="&#x442;" horiz-adv-x="449" 
d="M195 0q-11 0 -11 11v432h-156q-12 0 -12 12v50q0 12 12 12h393q12 0 12 -12v-50q0 -12 -12 -12h-155v-432q0 -11 -11 -11h-60z" />
    <glyph glyph-name="uni0443" unicode="&#x443;" horiz-adv-x="551" 
d="M400 505q0 12 11 12h59q12 0 12 -12v-491q0 -102 -51 -157.5t-160 -56.5q-62 0 -108 18t-85 51q-7 7 -1 17l30 41q7 10 16 3q31 -23 67 -39t81 -17q65 1 98 34t31 111v23q-27 -11 -59.5 -18.5t-64.5 -7.5q-41 0 -79 12t-67.5 37t-47.5 62t-18 88v290q0 12 11 12h59
q12 0 12 -12v-286q0 -35 11 -59t30 -39t44.5 -22t54.5 -7q32 0 61.5 7t52.5 20v386z" />
    <glyph glyph-name="uni045E" unicode="&#x45e;" horiz-adv-x="551" 
d="M428 732q-7 -60 -46.5 -97.5t-108.5 -37.5t-107 37t-46 97q-1 5 2 8.5t8 4.5l40 5q10 1 13 -9q7 -38 29 -59t61 -21q41 0 63 21t29 59q1 10 13 9l39 -5q12 -2 11 -12zM400 505q0 12 11 12h59q12 0 12 -12v-491q0 -102 -51 -157.5t-160 -56.5q-62 0 -108 18t-85 51
q-7 7 -1 17l30 41q7 10 16 3q31 -23 67 -39t81 -17q65 1 98 34t31 111v23q-27 -11 -59.5 -18.5t-64.5 -7.5q-41 0 -79 12t-67.5 37t-47.5 62t-18 88v290q0 12 11 12h59q12 0 12 -12v-286q0 -35 11 -59t30 -39t44.5 -22t54.5 -7q32 0 61.5 7t52.5 20v386z" />
    <glyph glyph-name="uni0444" unicode="&#x444;" horiz-adv-x="735" 
d="M338 -190q-11 0 -11 12v178h-80q-41 0 -76.5 12t-62.5 37t-42.5 62.5t-15.5 87.5v119q0 47 15.5 84t42.5 62.5t64.5 39t81.5 13.5h73v187q0 11 11 11h59q11 0 11 -11v-187h80q44 0 80.5 -13.5t62.5 -39t40 -62.5t14 -84v-119q0 -50 -15.5 -87.5t-42 -62.5t-60.5 -37
t-71 -12h-88v-178q0 -12 -11 -12h-59zM132 201q0 -127 128 -127h67v369h-70q-60 0 -92.5 -31.5t-32.5 -96.5v-114zM475 74q129 0 129 127v114q0 65 -32.5 96.5t-92.5 31.5h-71v-369h67z" />
    <glyph glyph-name="uni0445" unicode="&#x445;" horiz-adv-x="487" 
d="M468 14q9 -14 -7 -14h-74q-9 0 -13 7l-130 197l-130 -197q-4 -7 -14 -7h-74q-16 0 -7 14l174 247l-163 242q-4 5 -2 9.5t9 4.5h70q8 0 14 -8l123 -190l123 190q6 8 13 8h70q7 0 9.5 -4.5t-1.5 -9.5l-164 -242z" />
    <glyph glyph-name="uni0447" unicode="&#x447;" horiz-adv-x="518" 
d="M379 0q-12 0 -12 11v175q-29 -11 -60 -17.5t-63 -6.5q-45 0 -81.5 12t-63 37.5t-41 65.5t-14.5 95v133q0 12 11 12h60q11 0 11 -12v-131q0 -75 31 -106.5t88 -31.5q33 0 65.5 7t56.5 17v245q0 12 12 12h59q11 0 11 -12v-494q0 -11 -11 -11h-59z" />
    <glyph glyph-name="uni0446" unicode="&#x446;" horiz-adv-x="568" 
d="M474 -131q-12 0 -12 11v120h-382q-11 0 -11 11v494q0 12 11 12h59q12 0 12 -12v-431h244v431q0 12 11 12h59q12 0 12 -12v-432h50q12 0 12 -11v-182q0 -11 -12 -11h-53z" />
    <glyph glyph-name="uni0448" unicode="&#x448;" horiz-adv-x="779" 
d="M80 0q-11 0 -11 11v494q0 12 11 12h59q11 0 11 -12v-431h199v431q0 12 11 12h59q11 0 11 -12v-431h199v431q0 12 11 12h59q11 0 11 -12v-494q0 -11 -11 -11h-619z" />
    <glyph glyph-name="uni0449" unicode="&#x449;" horiz-adv-x="801" 
d="M707 -131q-11 0 -11 11v120h-616q-11 0 -11 11v494q0 12 11 12h59q11 0 11 -12v-431h199v431q0 12 11 12h59q11 0 11 -12v-431h199v431q0 12 11 12h59q11 0 11 -12v-432h51q11 0 11 -11v-182q0 -11 -11 -11h-54z" />
    <glyph glyph-name="uni045F" unicode="&#x45f;" horiz-adv-x="546" 
d="M466 517q11 0 11 -12v-494q0 -11 -11 -11h-155v-120q0 -11 -12 -11h-52q-12 0 -12 11v120h-154q-12 0 -12 11v494q0 12 12 12h59q11 0 11 -12v-431h244v431q0 12 12 12h59z" />
    <glyph glyph-name="uni044C" unicode="&#x44c;" horiz-adv-x="507" 
d="M80 0q-11 0 -11 11v494q0 12 11 12h59q12 0 12 -12v-161h127q92 0 145.5 -47t53.5 -128q0 -44 -14 -76t-40 -52.5t-62.5 -30.5t-82.5 -10h-198zM151 70h114q129 0 129 101q2 103 -129 103h-114v-204z" />
    <glyph glyph-name="uni044A" unicode="&#x44a;" horiz-adv-x="577" 
d="M151 0q-12 0 -12 11v433h-109q-12 0 -12 12v49q0 12 12 12h180q11 0 11 -12v-161h127q92 0 145.5 -47t53.5 -128q0 -44 -14 -76t-40 -52.5t-62.5 -30.5t-82.5 -10h-197zM221 70h115q129 0 129 101q0 103 -129 103h-115v-204z" />
    <glyph glyph-name="uni044B" unicode="&#x44b;" horiz-adv-x="691" 
d="M80 0q-11 0 -11 11v494q0 12 11 12h59q12 0 12 -12v-161h127q92 0 145.5 -47t53.5 -128q0 -44 -14 -76t-40 -52.5t-62.5 -30.5t-82.5 -10h-198zM151 70h114q129 0 129 101q2 103 -129 103h-114v-204zM551 0q-11 0 -11 11v494q0 12 11 12h59q12 0 12 -12v-494
q0 -11 -12 -11h-59z" />
    <glyph glyph-name="uni0459" unicode="&#x459;" horiz-adv-x="839" 
d="M187 178q-9 -51 -21 -85.5t-30.5 -55.5t-45 -30.5t-64.5 -10.5q-11 0 -11 11v51q0 10 11 12q16 1 28.5 6.5t22.5 19.5t18 38.5t14 63.5q8 48 14 121.5t12 185.5q0 12 12 12h326q11 0 11 -12v-161h126q92 0 145.5 -47t53.5 -128q0 -44 -14 -76t-40 -52.5t-62.5 -30.5
t-82.5 -10h-196q-12 0 -12 11v432h-190q-4 -88 -11 -155.5t-14 -109.5zM484 70h113q129 0 129 101q2 103 -129 103h-113v-204z" />
    <glyph glyph-name="uni045A" unicode="&#x45a;" horiz-adv-x="819" 
d="M80 0q-11 0 -11 11v494q0 12 11 12h59q12 0 12 -12v-180h237v180q0 12 11 12h59q12 0 12 -12v-181h122q91 0 144.5 -42.5t53.5 -122.5q0 -81 -53.5 -120t-144.5 -39h-193q-11 0 -11 11v240h-237v-240q0 -11 -12 -11h-59zM470 70h109q63 0 95.5 22.5t32.5 71.5
q0 45 -31 67.5t-97 22.5h-109v-184z" />
    <glyph glyph-name="uni0455" unicode="&#x455;" horiz-adv-x="475" 
d="M441 146q0 -38 -15.5 -67.5t-42.5 -49.5t-64 -30t-81 -10q-52 0 -102.5 15.5t-95.5 48.5q-8 5 -3 16l27 46q6 10 16 3q36 -27 76.5 -41.5t83.5 -14.5q51 0 84.5 20.5t33.5 59.5q0 21 -10.5 34.5t-27.5 22.5t-38 14t-42 9q-27 6 -61 15t-63.5 26.5t-50 45.5t-20.5 72
q0 38 16.5 66t44.5 46t63 26.5t73 8.5q48 0 90 -12t84 -35q11 -5 4 -15l-27 -45q-5 -11 -15 -4q-31 17 -66.5 27t-73.5 10q-53 0 -82.5 -19.5t-29.5 -53.5q0 -21 10.5 -34.5t28 -23t41 -15.5t50.5 -11q30 -6 62.5 -14.5t60 -25t45 -43t17.5 -68.5z" />
    <glyph glyph-name="uni0454" unicode="&#x454;" horiz-adv-x="477" 
d="M266 62q73 0 139 45q10 7 16 -3l29 -41q6 -10 -3 -16q-40 -29 -84 -43.5t-98 -14.5q-50 0 -89.5 14t-67 39.5t-42.5 60.5t-15 77v156q0 42 15 77t42.5 60.5t67 40t88.5 14.5q93 0 174 -51q9 -6 3 -16l-27 -41q-7 -8 -15 -4q-62 38 -133 38q-64 0 -98.5 -33t-34.5 -85v-38
h209q11 0 11 -11v-43q0 -12 -11 -12h-209v-52q0 -53 35 -85.5t98 -32.5z" />
    <glyph glyph-name="uni044D" unicode="&#x44d;" horiz-adv-x="477" 
d="M211.017 62q-72.9961 0 -138.992 45q-9.99902 7 -15.999 -3l-28.998 -41q-6 -10 3 -16q39.9971 -29 83.9951 -43.5q43.9971 -14.5 97.9941 -14.5q49.9961 0 89.4941 14q39.4971 14 66.9961 39.5q27.498 25.5 42.4971 60.5t14.999 77v156q0 42 -14.999 77t-42.4971 60.5
q-27.499 25.5 -66.9961 40q-39.498 14.5 -88.4951 14.5q-92.9941 0 -173.989 -51q-8.99902 -6 -2.99902 -16l26.998 -41q6.99902 -8 14.999 -4q61.9961 38 132.992 38q63.9961 0 98.4932 -33q34.498 -33 34.498 -85v-38h-208.987q-10.999 0 -10.999 -11v-43
q0 -12 10.999 -12h208.987v-52q0 -53 -34.998 -85.5q-34.9971 -32.5 -97.9932 -32.5z" />
    <glyph glyph-name="uni0456" unicode="&#x456;" horiz-adv-x="220" 
d="M81 0q-12 0 -12 11v494q0 12 12 12h59q11 0 11 -12v-494q0 -11 -11 -11h-59zM160 662q0 -21 -14 -35t-35 -14t-35.5 14t-14.5 35q0 22 14.5 35.5t35.5 13.5t35 -13.5t14 -35.5z" />
    <glyph glyph-name="uni0457" unicode="&#x457;" horiz-adv-x="220" 
d="M80 0q-11 0 -11 11v494q0 12 11 12h59q12 0 12 -12v-494q0 -11 -12 -11h-59zM86 662q0 -20 -13 -33t-33 -13t-33 13t-13 33t13 33.5t33 13.5t33 -13.5t13 -33.5zM225 662q0 -20 -13.5 -33t-33.5 -13t-33 13t-13 33t13 33.5t33 13.5t33.5 -13.5t13.5 -33.5z" />
    <glyph glyph-name="uni0458" unicode="&#x458;" horiz-adv-x="228" 
d="M159 -17q0 -91 -39 -137.5t-111 -46.5q-27 0 -49 3q-11 1 -11 13v50q0 12 12 12q21 -3 39 -3q38 0 57.5 24.5t19.5 84.5v522q0 12 12 12h59q11 0 11 -12v-522zM168 662q0 -21 -14 -35t-35 -14t-35.5 14t-14.5 35q0 22 14.5 35.5t35.5 13.5t35 -13.5t14 -35.5z" />
    <glyph glyph-name="uni045B" unicode="&#x45b;" horiz-adv-x="558" 
d="M151 491q27 11 58.5 18t67.5 7q46 0 86 -12.5t69 -38.5t45.5 -67.5t16.5 -99.5v-287q0 -11 -11 -11h-59q-12 0 -12 11v284q0 81 -36.5 114t-103.5 33q-34 0 -65 -7.5t-56 -18.5v-405q0 -11 -11 -11h-59q-12 0 -12 11v575h-68q-11 0 -11 11v34q0 12 11 12h68v61
q0 11 12 11h59q11 0 11 -11v-61h140q11 0 11 -12v-34q0 -11 -11 -11h-140v-95v0z" />
    <glyph glyph-name="uni044E" unicode="&#x44e;" horiz-adv-x="724" 
d="M253 332q0 42 14.5 78t42 62.5t66 41t86.5 14.5q49 0 88 -14.5t66.5 -41t42 -62.5t14.5 -78v-150q0 -42 -14.5 -77.5t-42 -61t-66.5 -40t-88 -14.5q-48 0 -86.5 14.5t-66 40t-42 61t-14.5 77.5v51h-104v-222q0 -11 -12 -11h-57q-11 0 -11 11v494q0 12 11 12h57
q12 0 12 -12v-199h104v26zM463 63q63 0 95.5 33t32.5 86v150q0 54 -32.5 88t-95.5 34t-95.5 -34t-32.5 -88v-150q0 -53 32.5 -86t95.5 -33z" />
    <glyph glyph-name="uni044F" unicode="&#x44f;" horiz-adv-x="515" 
d="M43 0q-7 0 -9 4t3 10l146 184q-69 11 -105 52.5t-36 103.5q0 82 54.5 122.5t141.5 40.5h196q12 0 12 -12v-494q0 -11 -12 -11h-59q-11 0 -11 11v181h-91l-144 -185q-4 -7 -13 -7h-73zM124 354q0 -47 29 -70t85 -23h126v186h-126q-56 0 -85 -22.5t-29 -70.5z" />
    <glyph glyph-name="uni0452" unicode="&#x452;" horiz-adv-x="558" 
d="M151 491q26 11 57.5 18t67.5 7q46 0 86 -12.5t69.5 -38.5t46 -67.5t16.5 -99.5v-309q0 -101 -37.5 -145t-109.5 -44q-9 0 -21 0.5t-23 2.5q-10 1 -10 13v51q0 11 12 11q11 -1 20.5 -1.5t14.5 -0.5q36 0 54 26.5t18 85.5v307q0 81 -36.5 114t-104.5 33q-34 0 -65 -7.5
t-55 -18.5v-405q0 -11 -12 -11h-59q-11 0 -11 11v575h-68q-12 0 -12 11v34q0 11 12 11h68v62q0 11 11 11h59q12 0 12 -11v-62h139q11 0 11 -11v-34q0 -11 -11 -11h-139v-95v0z" />
    <glyph glyph-name="uni0432.loclBGR" horiz-adv-x="540" 
d="M497 208q0 -56 -16 -96.5t-45 -67.5t-69.5 -40.5t-89.5 -14.5q-57 -1 -106 9.5t-93 27.5q-9 4 -9 13v489q0 50 15.5 87t42.5 62t63.5 37t79.5 12t80 -13t64 -37t42 -58t15 -77q0 -57 -25.5 -95.5t-68.5 -64.5q55 -20 87.5 -66.5t32.5 -106.5zM151 86q49 -23 117 -23
q70 1 108 35.5t38 109.5q0 61 -38 96t-114 28q-20 -2 -51.5 -5.5t-59.5 -8.5v-232zM151 388l116 15q59 9 90.5 44t31.5 89q0 59 -34 88t-85 29q-57 0 -88 -35t-31 -91v-139z" />
    <glyph glyph-name="uni0433.loclBGR" horiz-adv-x="463" 
d="M424 55q-86 -66 -201 -66q-92 0 -141 38.5t-49 107.5q0 33 12 58t34.5 44.5t55.5 34.5t76 29q27 8 50.5 16t41 18t27.5 23.5t10 31.5q0 34 -29 49t-72 15q-38 0 -75.5 -10t-66.5 -30q-11 -7 -16 4l-23 44q-5 10 3 16q38 26 82.5 38t93.5 12q85 0 133.5 -36t48.5 -102
q0 -36 -14.5 -61t-39.5 -43.5t-59.5 -32t-73.5 -26.5q-19 -6 -40 -13.5t-38 -18t-28.5 -25t-11.5 -34.5q0 -33 28 -53t85 -20q45 0 82.5 14t76.5 40q8 7 16 -4l24 -42q5 -10 -2 -16z" />
    <glyph glyph-name="uni0434.loclBGR" horiz-adv-x="543" 
d="M475 14q0 -49 -12 -88.5t-37.5 -67.5t-65.5 -43t-96 -15q-60 0 -106.5 18t-86.5 51q-7 6 -1 16l29 43q7 10 16 2q31 -25 67.5 -40.5t81.5 -15.5q68 0 99.5 35t29.5 112v24q-28 -14 -62 -21.5t-66 -7.5q-45 0 -84 12.5t-68.5 37.5t-46 63.5t-16.5 90.5v100q0 57 17.5 96.5
t47.5 64t71 36t88 11.5q53 0 103 -11t89 -28q9 -3 9 -13v-462zM133 220q0 -36 10.5 -61t29 -40t43.5 -22t55 -7q34 0 67.5 8t54.5 22v317q-22 8 -56 12.5t-62 4.5q-65 0 -103.5 -30t-38.5 -104v-100z" />
    <glyph glyph-name="uni0436.loclBGR" horiz-adv-x="730" 
d="M636 0q-10 0 -14 7l-159 229l-58 -65v-160q0 -11 -12 -11h-57q-11 0 -11 11v160l-58 65l-159 -229q-6 -7 -14 -7h-71q-16 0 -7 14l197 278l-179 211q-5 5 -3 9.5t9 4.5h72q9 0 14 -8l199 -240v435q0 11 11 11h57q12 0 12 -11v-435l199 240q5 8 14 8h71q8 0 10 -4.5
t-3 -9.5l-180 -211l198 -278q9 -14 -7 -14h-71z" />
    <glyph glyph-name="uni0438.loclBGR" horiz-adv-x="551" 
d="M472 517q11 0 11 -12v-463q0 -11 -8 -14q-42 -19 -90 -29t-99 -10q-49 0 -89.5 12t-70 38.5t-45.5 67.5t-16 98v300q0 12 12 12h59q11 0 11 -12v-298q0 -79 36.5 -112t102.5 -33q32 0 62 5.5t53 13.5v424q0 12 12 12h59z" />
    <glyph glyph-name="uni0439.loclBGR" horiz-adv-x="551" 
d="M435 732q-7 -60 -46.5 -97.5t-108.5 -37.5t-107 37t-46 97q-1 5 2 8.5t8 4.5l40 5q10 1 13 -9q7 -38 29 -59t61 -21q41 0 63 21t29 59q1 10 13 9l39 -5q12 -2 11 -12zM472 517q11 0 11 -12v-463q0 -11 -8 -14q-42 -19 -90 -29t-99 -10q-49 0 -89.5 12t-70 38.5
t-45.5 67.5t-16 98v300q0 12 12 12h59q11 0 11 -12v-298q0 -79 36.5 -112t102.5 -33q32 0 62 5.5t53 13.5v424q0 12 12 12h59z" />
    <glyph glyph-name="uni045D.loclBGR" horiz-adv-x="551" 
d="M323.001 597q7 0 9.99902 4q3 4 -1 10l-80.9941 133q-5 7 -14 7h-62.9961q-15.999 0 -5.99902 -14l95.9941 -133q4.99902 -7 13.999 -7h44.9971zM472 517q11 0 11 -12v-463q0 -11 -8 -14q-42 -19 -90 -29t-99 -10q-49 0 -89.5 12t-70 38.5t-45.5 67.5t-16 98v300
q0 12 12 12h59q11 0 11 -12v-298q0 -79 36.5 -112t102.5 -33q32 0 62 5.5t53 13.5v424q0 12 12 12h59z" />
    <glyph glyph-name="uni043A.loclBGR" horiz-adv-x="494" 
d="M407 0q-9 0 -15 7l-190 231l-51 -49v-178q0 -11 -12 -11h-59q-11 0 -11 11v693q0 11 11 11h59q12 0 12 -11v-414l226 221q5 6 14 6h73q7 0 8.5 -4.5t-3.5 -9.5l-212 -209l230 -280q10 -14 -6 -14h-74z" />
    <glyph glyph-name="uni043B.loclBGR" horiz-adv-x="501" 
d="M200 508q5 9 13 9h73q9 0 14 -9l184 -495q4 -13 -9 -13h-64q-5 0 -8.5 2t-4.5 7l-147 421h-1l-147 -421q-3 -9 -13 -9h-64q-6 0 -8.5 4t-0.5 9z" />
    <glyph glyph-name="uni043F.loclBGR" horiz-adv-x="557" 
d="M79 0q-11 0 -11 11v464q0 10 8 14q43 18 91.5 28.5t100.5 10.5q50 0 91.5 -12t71 -38.5t46 -67.5t16.5 -98v-301q0 -11 -12 -11h-59q-11 0 -11 11v299q0 78 -37.5 111t-105.5 33q-32 0 -63.5 -5t-54.5 -13v-425q0 -11 -12 -11h-59z" />
    <glyph glyph-name="uni0442.loclBGR" horiz-adv-x="817" 
d="M392 479q36 24 72.5 36.5t81.5 12.5q46 0 84 -13t65.5 -39t42.5 -64t15 -88v-313q0 -11 -11 -11h-59q-12 0 -12 11v315q0 60 -31 94t-96 34q-32 0 -59.5 -9t-50.5 -25q19 -41 19 -95v-314q0 -11 -11 -11h-60q-11 0 -11 11v315q0 128 -120 128q-31 0 -55.5 -5t-45.5 -13
v-425q0 -11 -12 -11h-59q-11 0 -11 11v464q0 10 9 14q40 18 83 28.5t89 10.5t81.5 -13t61.5 -36z" />
    <glyph glyph-name="uni0446.loclBGR" horiz-adv-x="580" 
d="M487 -131q-12 0 -12 11v143h-17q-38 -17 -79 -25.5t-88 -8.5q-109 0 -167.5 53t-58.5 167v296q0 12 11 12h59q12 0 12 -12v-297q0 -78 36 -111.5t108 -33.5q34 0 60.5 6t48.5 15v421q0 12 11 12h60q11 0 11 -12v-411h58q12 0 12 -11v-203q0 -11 -12 -11h-53z" />
    <glyph glyph-name="uni0448.loclBGR" horiz-adv-x="819" 
d="M427 37q-36 -23 -72.5 -35.5t-81.5 -12.5q-46 0 -84.5 13t-66 38.5t-42.5 64t-15 88.5v312q0 12 12 12h59q11 0 11 -12v-314q0 -60 31.5 -93.5t95.5 -33.5q32 0 59.5 8.5t50.5 23.5q-18 40 -18 95v314q0 12 11 12h59q12 0 12 -12v-314q0 -64 29 -96t91 -32q31 0 55.5 5
t45.5 13v424q0 12 11 12h59q12 0 12 -12v-463q0 -11 -9 -14q-40 -18 -83 -28.5t-89 -10.5q-89 0 -143 48z" />
    <glyph glyph-name="uni0449.loclBGR" horiz-adv-x="843" 
d="M750 -131q-11 0 -11 11v143h-17q-37 -16 -75 -25t-80 -9q-90 0 -143 47q-36 -23 -72.5 -35t-80.5 -12q-45 0 -83 13t-65.5 38.5t-42.5 64t-15 88.5v312q0 12 12 12h59q11 0 11 -12v-314q0 -60 31 -93.5t95 -33.5q31 0 58.5 8.5t50.5 23.5q-19 39 -19 95v314q0 12 11 12
h59q12 0 12 -12v-314q0 -64 29 -95.5t91 -31.5q30 0 54 6t44 17v418q0 12 12 12h59q11 0 11 -12v-408h58q12 0 12 -11v-206q0 -11 -12 -11h-53z" />
    <glyph glyph-name="uni044C.loclBGR" horiz-adv-x="509" 
d="M479 170q0 -44 -15.5 -77.5t-43.5 -56.5t-66.5 -34.5t-84.5 -12.5q-48 -1 -98.5 9t-93.5 27q-9 3 -9 13v467q0 12 11 12h58q11 0 11 -12v-174q27 8 58.5 13t65.5 5q46 0 84 -12t65.5 -35.5t42.5 -56.5t15 -75zM148 84q49 -19 110 -19q67 1 103 26.5t36 78.5
q0 52 -34.5 79t-100.5 27q-32 0 -60.5 -5t-53.5 -13v-174z" />
    <glyph glyph-name="uni044A.loclBGR" horiz-adv-x="581" 
d="M551 170q0 -44 -15.5 -77.5t-43.5 -56.5t-66.5 -34.5t-84.5 -12.5q-48 -1 -98.5 9t-93.5 27q-9 3 -9 13v406h-110q-12 0 -12 12v49q0 12 12 12h179q11 0 11 -12v-174q27 8 58.5 13t65.5 5q46 0 84 -12t65.5 -35.5t42.5 -56.5t15 -75zM220 84q49 -19 110 -19
q67 1 103 26.5t36 78.5q0 52 -34.5 79t-100.5 27q-32 0 -60.5 -5t-53.5 -13v-174z" />
    <glyph glyph-name="uni044E.loclBGR" horiz-adv-x="724" 
d="M253 332q0 42 14.5 78t42 62.5t66 41t86.5 14.5q49 0 88 -14.5t66.5 -41t42 -62.5t14.5 -78v-150q0 -42 -14.5 -77.5t-42 -61t-66.5 -40t-88 -14.5q-48 0 -86.5 14.5t-66 40t-42 61t-14.5 77.5v51h-104v-222q0 -11 -12 -11h-57q-11 0 -11 11v693q0 11 11 11h57
q12 0 12 -11v-398h104v26zM463 63q63 0 95.5 33t32.5 86v150q0 54 -32.5 88t-95.5 34t-95.5 -34t-32.5 -88v-150q0 -53 32.5 -86t95.5 -33z" />
    <glyph glyph-name="uni0430.ss01" horiz-adv-x="541" 
d="M397 57q-29 -33 -69 -50.5t-84 -17.5q-40 0 -75 11.5t-61.5 36.5t-42 64t-15.5 94v124q0 52 18 91.5t48 65.5t70.5 39t85.5 13q48 0 96 -9.5t96 -26.5q9 -3 9 -13v-468q0 -11 -11 -11h-49q-10 0 -12 11zM133 195q0 -70 30.5 -101.5t92.5 -31.5q33 0 69.5 16.5t65.5 48.5
v311q-29 8 -61 12.5t-61 4.5q-57 0 -96.5 -34t-39.5 -102v-124z" />
    <glyph glyph-name="Alpha" unicode="&#x391;" horiz-adv-x="619" 
d="M18 0q-12 0 -9 13l249 693q3 9 12 9h79q10 0 13 -9l248 -693q5 -13 -9 -13h-67q-10 0 -13 9l-61 178h-300l-62 -178q-3 -9 -13 -9h-67zM186 266h248l-122 354h-4z" />
    <glyph glyph-name="Beta" unicode="&#x392;" horiz-adv-x="637" 
d="M558 527q0 -51 -23 -89t-62 -57q56 -20 85.5 -65.5t29.5 -108.5q0 -98 -64 -152.5t-182 -54.5h-241q-12 0 -12 11v693q0 11 12 11h242q108 0 161.5 -51.5t53.5 -136.5zM343 77q74 0 116.5 31.5t42.5 98.5q0 60 -37 96t-116 36h-175v-262h169zM472 527q0 51 -32.5 81
t-96.5 30h-169v-222h175q55 0 89 27t34 84z" />
    <glyph glyph-name="Gamma" unicode="&#x393;" horiz-adv-x="510" 
d="M101 0q-12 0 -12 11v693q0 11 12 11h385q12 0 12 -11v-56q0 -11 -12 -11h-311v-626q0 -11 -12 -11h-62z" />
    <glyph glyph-name="uni0394" unicode="&#x394;" horiz-adv-x="624" 
d="M18 0q-12 0 -9 13l248 693q3 9 13 9h85q10 0 13 -9l247 -693q5 -13 -9 -13h-588zM122 78h381l-189 542h-3z" />
    <glyph glyph-name="Epsilon" unicode="&#x395;" 
d="M175 78h344q11 0 11 -11v-56q0 -11 -11 -11h-418q-12 0 -12 11v693q0 11 12 11h404q11 0 11 -11v-56q0 -11 -11 -11h-330v-234h307q11 0 11 -12v-55q0 -12 -11 -12h-307v-246z" />
    <glyph glyph-name="Zeta" unicode="&#x396;" horiz-adv-x="588" 
d="M47 0q-11 0 -11 11v39q0 9 4 14l388 573h-364q-12 0 -12 11v56q0 11 12 11h467q11 0 11 -11v-38q0 -8 -4 -15l-387 -573h389q11 0 11 -11v-56q0 -11 -11 -11h-493z" />
    <glyph glyph-name="Eta" unicode="&#x397;" horiz-adv-x="682" 
d="M508 704q0 11 12 11h62q11 0 11 -11v-693q0 -11 -11 -11h-62q-12 0 -12 11v313h-334v-313q0 -11 -11 -11h-62q-12 0 -12 11v693q0 11 12 11h62q11 0 11 -11v-302h334v302z" />
    <glyph glyph-name="Theta" unicode="&#x398;" horiz-adv-x="680" 
d="M616 251q0 -60 -19 -108.5t-55 -82.5t-87 -52.5t-115 -18.5t-115 18.5t-87 52.5t-55 82.5t-19 108.5v211q0 61 19 110t55 83.5t87 52.5t115 18t115 -18t87 -52.5t55 -83.5t19 -110v-211zM150 251q0 -85 49.5 -133t140.5 -48t140 48t49 133v211q0 88 -49 136.5t-140 48.5
t-140.5 -48.5t-49.5 -136.5v-211zM207 328q-12 0 -12 12v47q0 11 12 11h266q12 0 12 -11v-47q0 -12 -12 -12h-266z" />
    <glyph glyph-name="Iota" unicode="&#x399;" horiz-adv-x="263" 
d="M174 11q0 -11 -11 -11h-62q-12 0 -12 11v693q0 11 12 11h62q11 0 11 -11v-693z" />
    <glyph glyph-name="Kappa" unicode="&#x39a;" horiz-adv-x="614" 
d="M101 0q-12 0 -12 11v693q0 11 12 11h62q11 0 11 -11v-331l309 335q7 7 15 7h80q8 0 10 -4.5t-3 -9.5l-287 -308l307 -379q5 -6 2.5 -10t-9.5 -4h-81q-10 0 -14 7l-262 326l-67 -69v-253q0 -11 -11 -11h-62z" />
    <glyph glyph-name="Lambda" unicode="&#x39b;" horiz-adv-x="624" 
d="M18 0q-12 0 -9 13l248 693q3 9 13 9h85q10 0 13 -9l247 -693q5 -13 -9 -13h-67q-12 0 -13 9l-149 425l-63 187h-3l-63 -186l-149 -426q-3 -9 -13 -9h-68z" />
    <glyph glyph-name="Mu" unicode="&#x39c;" horiz-adv-x="853" 
d="M101 0q-12 0 -12 11v693q0 11 12 11h76q9 0 13 -8l155 -282q9 -17 20.5 -38.5t22.5 -43.5t20.5 -42t16.5 -34h3q7 14 16.5 34t20.5 42t22.5 43t20.5 38l156 283q3 8 13 8h76q11 0 11 -11v-693q0 -11 -11 -11h-63q-11 0 -11 11v302q0 63 2 135t4 136l-2 1
q-20 -41 -43 -84.5t-48 -91.5l-125 -232q-5 -8 -14 -8h-53q-10 0 -13 8l-125 232q-26 48 -48.5 91.5t-42.5 84.5l-2 -1q2 -64 3.5 -136t1.5 -135v-302q0 -11 -11 -11h-62z" />
    <glyph glyph-name="Nu" unicode="&#x39d;" horiz-adv-x="704" 
d="M101 0q-12 0 -12 11v693q0 11 12 11h70q9 0 14 -8l265 -432q20 -35 42.5 -73t41.5 -73l3 1q-2 31 -3 65.5t-1.5 69.5t-1 69.5t-0.5 66.5v303q0 11 11 11h62q11 0 11 -11v-693q0 -11 -11 -11h-70q-10 0 -14 7l-263 417q-22 35 -45 75.5t-42 76.5l-2 -1q2 -60 4 -130.5
t2 -130.5v-303q0 -11 -12 -11h-61z" />
    <glyph glyph-name="Xi" unicode="&#x39e;" horiz-adv-x="558" 
d="M71 637q-11 0 -11 11v56q0 11 11 11h415q12 0 12 -11v-56q0 -11 -12 -11h-415zM94 323q-11 0 -11 12v55q0 11 11 11h370q12 0 12 -11v-55q0 -12 -12 -12h-370zM59 0q-11 0 -11 11v57q0 11 11 11h439q12 0 12 -11v-57q0 -11 -12 -11h-439z" />
    <glyph glyph-name="Omicron" unicode="&#x39f;" horiz-adv-x="674" 
d="M610 251q0 -60 -19 -108.5t-54 -82.5t-86 -52.5t-114 -18.5t-114 18.5t-86 52.5t-54 82.5t-19 108.5v211q0 61 19 110t54 83.5t86 52.5t114 18t114 -18t86 -52.5t54 -83.5t19 -110v-211zM150 251q0 -85 48.5 -133t138.5 -48t138 48t48 133v211q0 88 -48 136.5t-138 48.5
t-138.5 -48.5t-48.5 -136.5v-211z" />
    <glyph glyph-name="Pi" unicode="&#x3a0;" horiz-adv-x="685" 
d="M101 0q-12 0 -12 11v693q0 11 12 11h483q12 0 12 -11v-693q0 -11 -12 -11h-63q-11 0 -11 11v626h-335v-626q0 -11 -11 -11h-63z" />
    <glyph glyph-name="Rho" unicode="&#x3a1;" horiz-adv-x="625" 
d="M341 715q119 0 183.5 -62t64.5 -172q0 -112 -65 -173.5t-183 -61.5h-167v-235q0 -11 -11 -11h-63q-11 0 -11 11v693q0 11 11 11h241zM332 325q171 0 171 156q0 155 -171 155h-158v-311h158z" />
    <glyph glyph-name="Sigma" unicode="&#x3a3;" horiz-adv-x="552" 
d="M496 715q12 0 12 -11v-55q0 -11 -12 -11h-331q5 -6 14 -18t29.5 -39.5t56.5 -76t95 -127.5q5 -8 0 -17l-140 -197q-13 -19 -32 -44.5t-32 -40.5h340q12 0 12 -12v-55q0 -11 -12 -11h-445q-11 0 -11 11v35q0 3 1 7t3 7l221 309l-220 290q-5 7 -5 15v30q0 11 11 11h445z
" />
    <glyph glyph-name="Tau" unicode="&#x3a4;" horiz-adv-x="561" 
d="M537 715q12 0 12 -11v-56q0 -11 -12 -11h-214v-626q0 -11 -12 -11h-62q-12 0 -12 11v626h-214q-11 0 -11 11v56q0 11 11 11h514z" />
    <glyph glyph-name="Upsilon" unicode="&#x3a5;" horiz-adv-x="568" 
d="M252 0q-11 0 -11 11v261l-235 429q-7 14 8 14h72q10 0 13 -8l185 -357l184 357q3 8 13 8h72q15 0 8 -14l-234 -431v-259q0 -11 -12 -11h-63z" />
    <glyph glyph-name="Phi" unicode="&#x3a6;" horiz-adv-x="857" 
d="M397 -66q-11 0 -11 11v77h-59q-50 0 -97.5 15.5t-85 48t-60 84t-22.5 123.5v126q0 72 22.5 123t60 84t85 48t97.5 15h59v71q0 12 11 12h63q11 0 11 -12v-71h59q50 0 97.5 -15t85 -48t60 -84t22.5 -123v-126q0 -72 -22.5 -123.5t-60 -84t-85 -48t-97.5 -15.5h-59v-77
q0 -11 -11 -11h-63zM150 293q0 -52 15 -88t40 -59t58 -33.5t68 -10.5h55v507h-55q-35 0 -68 -9.5t-58 -32t-40 -59t-15 -89.5v-126zM471 102h55q35 0 68 10.5t58.5 33.5t40.5 59t15 88v126q0 53 -15 89.5t-40.5 59t-58.5 32t-68 9.5h-55v-507z" />
    <glyph glyph-name="Chi" unicode="&#x3a7;" horiz-adv-x="590" 
d="M569 14q4 -5 2 -9.5t-9 -4.5h-77q-9 0 -14 8l-175 284l-176 -284q-5 -8 -14 -8h-77q-7 0 -9.5 4.5t1.5 9.5l225 345l-214 342q-4 5 -1.5 9.5t9.5 4.5h76q8 0 13 -8l167 -279l166 279q5 8 13 8h76q6 0 8.5 -4.5t-1.5 -9.5l-213 -342z" />
    <glyph glyph-name="Psi" unicode="&#x3a8;" horiz-adv-x="816" 
d="M376 0q-12 0 -12 11v146h-56q-48 0 -93 15.5t-79.5 46t-55.5 75.5t-21 105v305q0 11 11 11h64q12 0 12 -11v-305q0 -41 13.5 -71t36.5 -50.5t54 -30.5t67 -10h47v467q0 11 12 11h63q11 0 11 -11v-467h49q36 0 67 10t54 30.5t36.5 50.5t13.5 71v305q0 11 11 11h65
q11 0 11 -11v-305q0 -60 -21 -105t-55.5 -75.5t-79.5 -46t-93 -15.5h-58v-146q0 -11 -11 -11h-63z" />
    <glyph glyph-name="uni03A9" unicode="&#x3a9;" horiz-adv-x="705" 
d="M82 0q-12 0 -12 11v53q0 12 12 12h84q-42 37 -65.5 87t-23.5 111v180q0 129 72.5 200.5t203.5 71.5t203 -71.5t72 -200.5v-180q0 -61 -23.5 -111t-65.5 -87h85q11 0 11 -12v-53q0 -11 -11 -11h-210q-11 0 -11 11v43q0 8 9 13q60 24 94 76.5t34 130.5v180q0 94 -48 143.5
t-139 49.5q-92 0 -140 -49.5t-48 -143.5v-180q0 -78 34 -130.5t94 -76.5q10 -5 10 -13v-43q0 -11 -12 -11h-209z" />
    <glyph glyph-name="Alphatonos" unicode="&#x386;" horiz-adv-x="658" 
d="M46 561q-7 0 -10 4t1 10l81 133q5 7 14 7h63q16 0 6 -14l-96 -133q-5 -7 -14 -7h-45zM57 0q-12 0 -9 13l249 693q3 9 12 9h79q10 0 13 -9l248 -693q5 -13 -9 -13h-67q-10 0 -13 9l-61 178h-300l-62 -178q-3 -9 -13 -9h-67zM225 266h248l-122 354h-4z" />
    <glyph glyph-name="Epsilontonos" unicode="&#x388;" horiz-adv-x="736" 
d="M20 561q-7 0 -10 4t1 10l81 133q5 7 14 7h63q16 0 6 -14l-96 -133q-5 -7 -14 -7h-45zM332 78h344q11 0 11 -11v-56q0 -11 -11 -11h-418q-12 0 -12 11v693q0 11 12 11h404q11 0 11 -11v-56q0 -11 -11 -11h-330v-234h307q11 0 11 -12v-55q0 -12 -11 -12h-307v-246z" />
    <glyph glyph-name="Etatonos" unicode="&#x389;" horiz-adv-x="844" 
d="M20 561q-7 0 -10 4t1 10l81 133q5 7 14 7h63q16 0 6 -14l-96 -133q-5 -7 -14 -7h-45zM670 704q0 11 12 11h62q11 0 11 -11v-693q0 -11 -11 -11h-62q-12 0 -12 11v313h-334v-313q0 -11 -11 -11h-62q-12 0 -12 11v693q0 11 12 11h62q11 0 11 -11v-302h334v302z" />
    <glyph glyph-name="Iotatonos" unicode="&#x38a;" horiz-adv-x="432" 
d="M20 561q-7 0 -10 4t1 10l81 133q5 7 14 7h63q16 0 6 -14l-96 -133q-5 -7 -14 -7h-45zM343 11q0 -11 -11 -11h-62q-12 0 -12 11v693q0 11 12 11h62q11 0 11 -11v-693z" />
    <glyph glyph-name="Omicrontonos" unicode="&#x38c;" horiz-adv-x="797" 
d="M22 561q-7 0 -10 4t1 10l81 133q5 7 14 7h63q16 0 6 -14l-96 -133q-5 -7 -14 -7h-45zM733 251q0 -60 -19 -108.5t-54 -82.5t-86 -52.5t-114 -18.5t-114 18.5t-86 52.5t-54 82.5t-19 108.5v211q0 61 19 110t54 83.5t86 52.5t114 18t114 -18t86 -52.5t54 -83.5t19 -110
v-211zM273 251q0 -85 48.5 -133t138.5 -48t138 48t48 133v211q0 88 -48 136.5t-138 48.5t-138.5 -48.5t-48.5 -136.5v-211z" />
    <glyph glyph-name="Upsilontonos" unicode="&#x38e;" horiz-adv-x="800" 
d="M30 561q-7 0 -10 4t1 10l81 133q5 7 14 7h63q16 0 6 -14l-96 -133q-5 -7 -14 -7h-45zM484 0q-11 0 -11 11v261l-235 429q-7 14 8 14h72q10 0 13 -8l185 -357l184 357q3 8 13 8h72q15 0 8 -14l-234 -431v-259q0 -11 -12 -11h-63z" />
    <glyph glyph-name="Omegatonos" unicode="&#x38f;" horiz-adv-x="797" 
d="M174 0q-12 0 -12 11v53q0 12 12 12h84q-42 37 -65.5 87t-23.5 111v180q0 129 72.5 200.5t203.5 71.5t203 -71.5t72 -200.5v-180q0 -61 -23.5 -111t-65.5 -87h85q11 0 11 -12v-53q0 -11 -11 -11h-210q-11 0 -11 11v43q0 8 9 13q60 24 94 76.5t34 130.5v180q0 94 -48 143.5
t-139 49.5q-92 0 -140 -49.5t-48 -143.5v-180q0 -78 34 -130.5t94 -76.5q10 -5 10 -13v-43q0 -11 -12 -11h-209zM24 561q-7 0 -10 4t1 10l81 133q5 7 14 7h63q16 0 6 -14l-96 -133q-5 -7 -14 -7h-45z" />
    <glyph glyph-name="Iotadieresis" unicode="&#x3aa;" horiz-adv-x="263" 
d="M100 0q-11 0 -11 11v693q0 11 11 11h62q12 0 12 -11v-693q0 -11 -12 -11h-62zM92 857q0 -22 -14 -35.5t-35 -13.5t-35 13.5t-14 35.5t14 36t35 14t35 -14t14 -36zM269 857q0 -22 -13.5 -35.5t-36.5 -13.5q-22 0 -35.5 13.5t-13.5 35.5t13.5 36t35.5 14q23 0 36.5 -14
t13.5 -36z" />
    <glyph glyph-name="Upsilondieresis" unicode="&#x3ab;" horiz-adv-x="568" 
d="M231 847q0 -22 -14 -35.5t-35 -13.5q-22 0 -35.5 13.5t-13.5 35.5t13.5 36t35.5 14q21 0 35 -14t14 -36zM435 847q0 -22 -14 -35.5t-36 -13.5t-35.5 13.5t-13.5 35.5t13.5 36t35.5 14t36 -14t14 -36zM252 0q-11 0 -11 11v261l-235 429q-7 14 8 14h72q10 0 13 -8l185 -357
l184 357q3 8 13 8h72q15 0 8 -14l-234 -431v-259q0 -11 -12 -11h-63z" />
    <glyph glyph-name="alpha" unicode="&#x3b1;" horiz-adv-x="541" 
d="M397 57q-29 -33 -69 -50.5t-84 -17.5q-40 0 -75 11.5t-61.5 36.5t-42 64t-15.5 94v124q0 52 18 91.5t48 65.5t70.5 39t85.5 13q48 0 96 -9.5t96 -26.5q9 -3 9 -13v-468q0 -11 -11 -11h-49q-10 0 -12 11zM133 195q0 -70 30.5 -101.5t92.5 -31.5q33 0 69.5 16.5t65.5 48.5
v311q-29 8 -61 12.5t-61 4.5q-57 0 -96.5 -34t-39.5 -102v-124z" />
    <glyph glyph-name="beta" unicode="&#x3b2;" horiz-adv-x="539" 
d="M469 532q1 -57 -25.5 -96t-67.5 -61q57 -18 88 -62.5t31 -113.5q0 -52 -15.5 -91t-44 -65t-68 -39.5t-87.5 -14.5q-31 -1 -64.5 5.5t-66.5 23.5v-196q0 -12 -11 -12h-58q-11 0 -11 12v707q0 50 15 87t41.5 61.5t63 36.5t79.5 12q45 0 82 -13t63.5 -38t41 -61t14.5 -82z
M149 94q29 -17 61 -24.5t61 -7.5q71 0 107 33t36 105q0 65 -34.5 97t-108.5 32h-60q-12 0 -12 11v50q0 12 12 12h61q53 0 85 34t32 92q0 65 -34 95t-87 30q-59 0 -89 -35t-30 -91v-433z" />
    <glyph glyph-name="gamma" unicode="&#x3b3;" horiz-adv-x="499" 
d="M221 -191q-12 0 -12 11v188l-193 495q-5 14 9 14h64q11 0 13 -9l85 -235q6 -16 14.5 -40.5t17.5 -51t17 -51.5t13 -42h2q6 17 14 42t16.5 51.5t16.5 51t14 40.5l84 235q4 9 13 9h65q14 0 9 -14l-193 -495v-188q0 -11 -11 -11h-58z" />
    <glyph glyph-name="delta" unicode="&#x3b4;" horiz-adv-x="535" 
d="M152 582q0 -20 14.5 -36.5t38 -30t52.5 -24.5t59 -21q37 -12 68.5 -29t54.5 -40.5t35.5 -54t12.5 -69.5v-97q0 -47 -18.5 -83t-49 -60t-69.5 -36t-81 -12t-82 12t-71 36t-49.5 59.5t-18.5 82.5v102q0 66 36.5 110.5t94.5 65.5q-47 23 -77.5 53.5t-30.5 74.5q0 29 13 55
t39 45t64 30t88 11q46 0 87.5 -10.5t82.5 -33.5q9 -6 5 -15l-25 -48q-6 -9 -17 -4q-35 20 -68.5 29t-69.5 9q-54 0 -86 -19t-32 -52zM269 62q26 0 50.5 7t43.5 21.5t30.5 37.5t11.5 55v91q0 31 -11 54t-30.5 40t-45 28t-54.5 17q-60 -5 -96.5 -39.5t-36.5 -94.5v-98
q0 -29 11 -51.5t30 -37.5t44 -22.5t53 -7.5z" />
    <glyph glyph-name="epsilon" unicode="&#x3b5;" horiz-adv-x="486" 
d="M253 62q45 0 83.5 17t71.5 46q8 7 16 -1l32 -38q7 -9 0 -16q-50 -47 -99.5 -64t-107.5 -17q-45 0 -83 12t-65 34t-42.5 52t-15.5 65q0 43 21.5 74t66.5 47q-33 16 -51.5 41.5t-18.5 63.5q0 33 14 60.5t39.5 47.5t61 31t78.5 11q61 0 108.5 -20t79.5 -47q8 -7 1 -17
l-30 -38q-8 -8 -17 -1q-23 20 -58 35.5t-83 15.5q-50 0 -81 -19.5t-31 -59.5q0 -36 26 -57t71 -21h99q11 0 11 -12v-40q0 -12 -11 -12h-100q-54 0 -83.5 -20.5t-29.5 -61.5q0 -44 34 -67.5t93 -23.5z" />
    <glyph glyph-name="zeta" unicode="&#x3b6;" horiz-adv-x="465" 
d="M415 -40q0 -32 -20.5 -68.5t-52.5 -73.5q-8 -8 -16 -1l-38 30q-9 7 -1 17q23 26 36 48.5t13 36.5q0 20 -24.5 30t-59.5 21q-33 10 -69.5 24t-67.5 38t-51.5 62t-20.5 97q0 106 72.5 216t212.5 203l-1 1h-246q-12 0 -12 12v51q0 11 12 11h367q11 0 11 -11v-33
q0 -10 -8 -14q-78 -49 -139 -102.5t-102.5 -108.5t-63 -108.5t-21.5 -102.5q0 -35 10 -60.5t27 -44.5t39 -31.5t46 -22.5q30 -12 60 -21.5t54 -21.5t39 -29t15 -44z" />
    <glyph glyph-name="eta" unicode="&#x3b7;" horiz-adv-x="557" 
d="M79 0q-11 0 -11 11v464q0 10 8 14q43 18 91.5 28.5t100.5 10.5q50 0 91.5 -12t71 -38.5t46 -67.5t16.5 -98v-301q0 -11 -12 -11h-59q-11 0 -11 11v299q0 78 -37.5 111t-105.5 33q-32 0 -63.5 -5t-54.5 -13v-425q0 -11 -12 -11h-59z" />
    <glyph glyph-name="theta" unicode="&#x3b8;" horiz-adv-x="578" 
d="M514 203q0 -52 -17 -92t-47 -67.5t-71 -41t-90 -13.5q-48 0 -89 14t-71.5 41t-47.5 67t-17 92v307q0 52 17 92t47.5 67.5t71.5 42t89 14.5t89.5 -14t71.5 -42t47 -68t17 -92v-307zM147 401h284v109q0 72 -39.5 108t-102.5 35q-62 0 -102 -36t-40 -107v-109zM147 200
q0 -68 37.5 -103t104.5 -35q67 -1 105 34.5t38 103.5v129h-285v-129z" />
    <glyph glyph-name="iota" unicode="&#x3b9;" horiz-adv-x="220" 
d="M80 0q-11 0 -11 11v494q0 12 11 12h59q12 0 12 -12v-494q0 -11 -12 -11h-59z" />
    <glyph glyph-name="kappa" unicode="&#x3ba;" horiz-adv-x="495" 
d="M410 0q-9 0 -15 7l-189 227l-57 -57v-166q0 -11 -12 -11h-57q-11 0 -11 11v494q0 12 11 12h57q12 0 12 -12v-227l230 233q5 6 14 6h72q7 0 9 -4.5t-3 -9.5l-210 -212l226 -277q5 -6 2.5 -10t-9.5 -4h-70z" />
    <glyph glyph-name="lambda" unicode="&#x3bb;" horiz-adv-x="557" 
d="M77 0q-12 0 -12 11v282q0 54 17 92t46 62t69 35t85 11q31 0 63 -6.5t64 -18.5v70q0 57 -36 86t-96 29q-42 0 -79.5 -13.5t-63.5 -33.5q-10 -8 -17 1l-28 41q-8 7 1 16q33 29 82.5 45.5t105.5 16.5q43 0 81 -11.5t66.5 -35t45.5 -60t17 -86.5v-522q0 -11 -11 -11h-59
q-12 0 -12 11v383q-29 12 -60 19t-63 7q-63 0 -99.5 -28.5t-36.5 -99.5v-281q0 -11 -11 -11h-59z" />
    <glyph glyph-name="uni03BC" unicode="&#x3bc;" horiz-adv-x="567" 
d="M80 -191q-11 0 -11 11v685q0 12 11 12h59q12 0 12 -12v-309q0 -28 8.5 -52.5t25.5 -42.5t41.5 -28.5t56.5 -10.5q33 0 57.5 10.5t41.5 28.5t25.5 42.5t8.5 52.5v309q0 12 12 12h59q11 0 11 -12v-494q0 -11 -11 -11h-46q-10 0 -13 10l-5 55q-15 -33 -53 -54.5t-87 -21.5
q-48 0 -82.5 20t-51.5 51q0 -10 1 -27t1 -36v-177q0 -11 -12 -11h-59z" />
    <glyph glyph-name="nu" unicode="&#x3bd;" horiz-adv-x="500" 
d="M212 0q-9 0 -13 9l-183 494q-5 14 9 14h64q9 0 13 -9l99 -285q12 -34 23.5 -68t24.5 -68h1q11 34 23 68l24 68l100 285q2 9 13 9h64q12 0 9 -14l-184 -494q-5 -9 -14 -9h-73z" />
    <glyph glyph-name="xi" unicode="&#x3be;" horiz-adv-x="461" 
d="M420 -40q0 -59 -73 -141q-7 -10 -16 -2l-38 30q-9 7 -2 17q22 23 35.5 45t13.5 38q0 19 -25 30t-62 23q-33 11 -70 25.5t-68.5 38t-52 59.5t-20.5 90q0 63 35 106.5t97 60.5q-57 23 -85.5 64t-28.5 97q0 40 15 73.5t42 58.5t65.5 39t86.5 14q51 0 97 -15.5t87 -48.5
q9 -6 3 -16l-27 -39q-7 -11 -16 -3q-32 24 -67 36.5t-79 12.5q-25 0 -47.5 -7.5t-40 -22t-27.5 -35.5t-10 -48q0 -26 10.5 -48.5t28.5 -39t43.5 -25.5t55.5 -9h80q11 0 11 -12v-51q0 -12 -11 -12h-90q-31 0 -57.5 -9.5t-46 -26.5t-30.5 -41t-11 -52q0 -27 9 -47.5t25 -36
t36.5 -27t43.5 -20.5q31 -13 63 -23.5t58.5 -23.5t43 -31t16.5 -45z" />
    <glyph glyph-name="omicron" unicode="&#x3bf;" horiz-adv-x="540" 
d="M490 185q0 -44 -15.5 -80t-44 -62t-69 -40t-91.5 -14t-91.5 14t-69 40t-44 62t-15.5 80v144q0 44 15.5 80.5t44 63t69 41t91.5 14.5t91.5 -14.5t69 -41t44 -63t15.5 -80.5v-144zM133 185q0 -57 35 -90t102 -33q68 0 103 33t35 90v144q0 57 -35 91t-103 34q-67 0 -102 -34
t-35 -91v-144z" />
    <glyph glyph-name="pi" unicode="&#x3c0;" horiz-adv-x="546" 
d="M466 517q11 0 11 -12v-494q0 -11 -11 -11h-59q-12 0 -12 11v432h-244v-432q0 -11 -11 -11h-59q-12 0 -12 11v494q0 12 12 12h385z" />
    <glyph glyph-name="rho" unicode="&#x3c1;" horiz-adv-x="545" 
d="M77 -190q-12 0 -12 12v495q0 53 16.5 92.5t45 66t67 39.5t82.5 13t83.5 -13t69.5 -39t48 -65.5t18 -92.5v-133q0 -49 -16.5 -85.5t-45.5 -61t-69.5 -37t-88.5 -12.5q-31 0 -62.5 8.5t-66.5 29.5v-205q0 -12 -12 -12h-57zM146 105q28 -20 60 -31.5t66 -11.5
q62 0 101.5 30.5t39.5 95.5v128q0 73 -37.5 106t-99.5 33q-61 0 -95.5 -34t-34.5 -106v-210z" />
    <glyph glyph-name="sigma1" unicode="&#x3c2;" horiz-adv-x="454" 
d="M130 207q0 -33 14 -56t37 -39.5t51.5 -28t57.5 -21.5q25 -9 48.5 -18t41.5 -20.5t28.5 -27t10.5 -36.5q0 -60 -73 -142q-8 -9 -16 -2l-38 31q-9 8 -1 16q22 25 35.5 47.5t13.5 36.5q0 18 -24.5 29t-59.5 22q-32 10 -68.5 24.5t-67 37.5t-50.5 57.5t-20 86.5v142
q0 45 16.5 79t44.5 57t63.5 34.5t74.5 11.5q59 0 103.5 -14t77.5 -37q9 -6 2 -15l-28 -43q-7 -10 -15 -3q-26 16 -60 27t-79 11q-24 0 -45.5 -7.5t-38 -21.5t-26.5 -34.5t-10 -46.5v-137v0z" />
    <glyph glyph-name="sigma" unicode="&#x3c3;" horiz-adv-x="559" 
d="M489 189q0 -45 -15.5 -82.5t-44 -63.5t-69 -40t-91.5 -14t-91.5 14t-69 40.5t-44 63.5t-15.5 82v124q0 46 15.5 83.5t44 64.5t69 41.5t91.5 14.5h252q11 0 11 -12v-50q0 -12 -11 -12h-93q29 -20 45 -54t16 -76v-124zM131 189q0 -60 35 -93t103 -33q69 0 104 33t35 93v124
q0 63 -36.5 96t-102.5 34q-68 0 -103 -35t-35 -95v-124z" />
    <glyph glyph-name="tau" unicode="&#x3c4;" horiz-adv-x="449" 
d="M195 0q-11 0 -11 11v432h-156q-12 0 -12 12v50q0 12 12 12h393q12 0 12 -12v-50q0 -12 -12 -12h-155v-432q0 -11 -11 -11h-60z" />
    <glyph glyph-name="upsilon" unicode="&#x3c5;" horiz-adv-x="558" 
d="M493 187q0 -45 -16.5 -81.5t-45 -62.5t-67.5 -40t-85 -14t-85 14t-67.5 40t-45 62.5t-16.5 81.5v318q0 12 12 12h59q11 0 11 -12v-318q0 -62 37 -93t95 -32q58 0 95 31.5t37 93.5v318q0 12 11 12h59q12 0 12 -12v-318v0z" />
    <glyph glyph-name="phi" unicode="&#x3c6;" horiz-adv-x="735" 
d="M338 -190q-11 0 -11 12v178h-80q-41 0 -76.5 12t-62.5 37t-42.5 62.5t-15.5 87.5v119q0 47 15.5 84t42.5 62.5t64.5 39t81.5 13.5h73v187q0 11 11 11h59q11 0 11 -11v-187h80q44 0 80.5 -13.5t62.5 -39t40 -62.5t14 -84v-119q0 -50 -15.5 -87.5t-42 -62.5t-60.5 -37
t-71 -12h-88v-178q0 -12 -11 -12h-59zM132 201q0 -127 128 -127h67v369h-70q-60 0 -92.5 -31.5t-32.5 -96.5v-114zM475 74q129 0 129 127v114q0 65 -32.5 96.5t-92.5 31.5h-71v-369h67z" />
    <glyph glyph-name="chi" unicode="&#x3c7;" horiz-adv-x="487" 
d="M468 14q9 -14 -7 -14h-74q-9 0 -13 7l-130 197l-130 -197q-4 -7 -14 -7h-74q-16 0 -7 14l174 247l-163 242q-4 5 -2 9.5t9 4.5h70q8 0 14 -8l123 -190l123 190q6 8 13 8h70q7 0 9.5 -4.5t-1.5 -9.5l-164 -242z" />
    <glyph glyph-name="psi" unicode="&#x3c8;" horiz-adv-x="759" 
d="M350 -191q-11 0 -11 11v180h-59q-43 0 -82 12.5t-69 38t-47.5 64.5t-17.5 91v299q0 12 11 12h59q12 0 12 -12v-296q0 -69 37.5 -102t110.5 -33h45v431q0 12 11 12h58q12 0 12 -12v-431h45q72 0 110 33t38 102v296q0 12 11 12h60q11 0 11 -12v-299q0 -52 -18 -91
t-48 -64.5t-69 -38t-81 -12.5h-59v-180q0 -11 -12 -11h-58z" />
    <glyph glyph-name="omega" unicode="&#x3c9;" horiz-adv-x="759" 
d="M533 520q1 5 4.5 7.5t8.5 0.5q35 -7 64.5 -22.5t51 -39.5t33.5 -56t12 -71v-165q0 -44 -15.5 -78.5t-41 -58t-58 -36t-65.5 -12.5q-54 0 -90.5 25t-56.5 70q-20 -45 -57 -70t-91 -25q-33 0 -65.5 12.5t-58 36t-41.5 58t-16 78.5v165q0 39 12 71t33.5 56t51 39.5
t64.5 22.5q12 3 14 -8l13 -52q3 -10 -8 -13q-45 -8 -71.5 -39t-26.5 -80v-159q0 -27 8.5 -48t22.5 -35.5t32.5 -22.5t38.5 -8q49 0 76.5 30.5t27.5 83.5v148q0 11 11 11h59q11 0 11 -11v-148q0 -53 27.5 -83.5t76.5 -30.5q40 0 70.5 30t30.5 84v159q0 49 -26 80t-71 39
q-10 3 -9 13z" />
    <glyph glyph-name="iotatonos" unicode="&#x3af;" horiz-adv-x="220" 
d="M69 597q-7 0 -10 4t1 10l81 133q5 7 14 7h63q16 0 6 -14l-96 -133q-5 -7 -14 -7h-45zM80 0q-11 0 -11 11v494q0 12 11 12h59q12 0 12 -12v-494q0 -11 -12 -11h-59z" />
    <glyph glyph-name="iotadieresis" unicode="&#x3ca;" horiz-adv-x="220" 
d="M80 0q-11 0 -11 11v494q0 12 11 12h59q12 0 12 -12v-494q0 -11 -12 -11h-59zM86 662q0 -20 -13 -33t-33 -13t-33 13t-13 33t13 33.5t33 13.5t33 -13.5t13 -33.5zM225 662q0 -20 -13.5 -33t-33.5 -13t-33 13t-13 33t13 33.5t33 13.5t33.5 -13.5t13.5 -33.5z" />
    <glyph glyph-name="iotadieresistonos" unicode="&#x390;" horiz-adv-x="220" 
d="M81 0q-12 0 -12 11v494q0 12 12 12h59q11 0 11 -12v-494q0 -11 -11 -11h-59zM55 665q0 -19 -11.5 -30.5t-30.5 -11.5q-18 0 -30 11.5t-12 30.5t12 30.5t30 11.5q19 0 30.5 -11.5t11.5 -30.5zM76 598q-14 0 -9 13l47 120q3 9 13 9h47q15 0 8 -14l-62 -120q-4 -8 -13 -8
h-31zM272 665q0 -19 -11 -30.5t-30 -11.5t-30.5 11.5t-11.5 30.5t11.5 30.5t30.5 11.5t30 -11.5t11 -30.5z" />
    <glyph glyph-name="upsilontonos" unicode="&#x3cd;" horiz-adv-x="558" 
d="M493 187q0 -45 -16.5 -81.5t-45 -62.5t-67.5 -40t-85 -14t-85 14t-67.5 40t-45 62.5t-16.5 81.5v318q0 12 12 12h59q11 0 11 -12v-318q0 -62 37 -93t95 -32q58 0 95 31.5t37 93.5v318q0 12 11 12h59q12 0 12 -12v-318v0zM239 597q-7 0 -10 4t1 10l81 133q5 7 14 7h63
q16 0 6 -14l-96 -133q-5 -7 -14 -7h-45z" />
    <glyph glyph-name="upsilondieresis" unicode="&#x3cb;" horiz-adv-x="558" 
d="M493 187q0 -45 -16.5 -81.5t-45 -62.5t-67.5 -40t-85 -14t-85 14t-67.5 40t-45 62.5t-16.5 81.5v318q0 12 12 12h59q11 0 11 -12v-318q0 -62 37 -93t95 -32q58 0 95 31.5t37 93.5v318q0 12 11 12h59q12 0 12 -12v-318v0zM231 662q0 -22 -13 -34.5t-34 -12.5
q-20 0 -33.5 12.5t-13.5 34.5q0 23 13.5 35.5t33.5 12.5q21 0 34 -12.5t13 -35.5zM423 662q0 -22 -13.5 -34.5t-33.5 -12.5q-21 0 -34.5 12.5t-13.5 34.5q0 23 13.5 35.5t34.5 12.5q20 0 33.5 -12.5t13.5 -35.5z" />
    <glyph glyph-name="upsilondieresistonos" unicode="&#x3b0;" horiz-adv-x="558" 
d="M493 187q0 -45 -16.5 -81.5t-45 -62.5t-67.5 -40t-85 -14t-85 14t-67.5 40t-45 62.5t-16.5 81.5v318q0 12 12 12h59q11 0 11 -12v-318q0 -62 37 -93t95 -32q58 0 95 31.5t37 93.5v318q0 12 11 12h59q12 0 12 -12v-318v0zM235 598q-13 0 -10 13l53 131q3 9 13 9h51
q6 0 8 -4t0 -9l-68 -132q-3 -8 -13 -8h-34zM202 662q0 -20 -12 -31.5t-32 -11.5q-19 0 -31.5 11.5t-12.5 31.5t12.5 32t31.5 12q20 0 32 -12t12 -32zM446 662q0 -20 -12 -31.5t-31 -11.5q-20 0 -32.5 11.5t-12.5 31.5t12.5 32t32.5 12q19 0 31 -12t12 -32z" />
    <glyph glyph-name="omicrontonos" unicode="&#x3cc;" horiz-adv-x="540" 
d="M209 597q-7 0 -10 4t1 10l81 133q5 7 14 7h63q16 0 6 -14l-96 -133q-5 -7 -14 -7h-45zM490 185q0 -44 -15.5 -80t-44 -62t-69 -40t-91.5 -14t-91.5 14t-69 40t-44 62t-15.5 80v144q0 44 15.5 80.5t44 63t69 41t91.5 14.5t91.5 -14.5t69 -41t44 -63t15.5 -80.5v-144z
M133 185q0 -57 35 -90t102 -33q68 0 103 33t35 90v144q0 57 -35 91t-103 34q-67 0 -102 -34t-35 -91v-144z" />
    <glyph glyph-name="omegatonos" unicode="&#x3ce;" horiz-adv-x="759" 
d="M533 520q1 5 4.5 7.5t8.5 0.5q35 -7 64.5 -22.5t51 -39.5t33.5 -56t12 -71v-165q0 -44 -15.5 -78.5t-41 -58t-58 -36t-65.5 -12.5q-54 0 -90.5 25t-56.5 70q-20 -45 -57 -70t-91 -25q-33 0 -65.5 12.5t-58 36t-41.5 58t-16 78.5v165q0 39 12 71t33.5 56t51 39.5
t64.5 22.5q12 3 14 -8l13 -52q3 -10 -8 -13q-45 -8 -71.5 -39t-26.5 -80v-159q0 -27 8.5 -48t22.5 -35.5t32.5 -22.5t38.5 -8q49 0 76.5 30.5t27.5 83.5v148q0 11 11 11h59q11 0 11 -11v-148q0 -53 27.5 -83.5t76.5 -30.5q40 0 70.5 30t30.5 84v159q0 49 -26 80t-71 39
q-10 3 -9 13zM339 597q-7 0 -10 4t1 10l81 133q5 7 14 7h63q16 0 6 -14l-96 -133q-5 -7 -14 -7h-45z" />
    <glyph glyph-name="alphatonos" unicode="&#x3ac;" horiz-adv-x="541" 
d="M397 57q-29 -33 -69 -50.5t-84 -17.5q-40 0 -75 11.5t-61.5 36.5t-42 64t-15.5 94v124q0 52 18 91.5t48 65.5t70.5 39t85.5 13q48 0 96 -9.5t96 -26.5q9 -3 9 -13v-468q0 -11 -11 -11h-49q-10 0 -12 11zM133 195q0 -70 30.5 -101.5t92.5 -31.5q33 0 69.5 16.5t65.5 48.5
v311q-29 8 -61 12.5t-61 4.5q-57 0 -96.5 -34t-39.5 -102v-124zM225 597q-7 0 -10 4t1 10l81 133q5 7 14 7h63q16 0 6 -14l-96 -133q-5 -7 -14 -7h-45z" />
    <glyph glyph-name="epsilontonos" unicode="&#x3ad;" horiz-adv-x="486" 
d="M253 62q45 0 83.5 17t71.5 46q8 7 16 -1l32 -38q7 -9 0 -16q-50 -47 -99.5 -64t-107.5 -17q-45 0 -83 12t-65 34t-42.5 52t-15.5 65q0 43 21.5 74t66.5 47q-33 16 -51.5 41.5t-18.5 63.5q0 33 14 60.5t39.5 47.5t61 31t78.5 11q61 0 108.5 -20t79.5 -47q8 -7 1 -17
l-30 -38q-8 -8 -17 -1q-23 20 -58 35.5t-83 15.5q-50 0 -81 -19.5t-31 -59.5q0 -36 26 -57t71 -21h99q11 0 11 -12v-40q0 -12 -11 -12h-100q-54 0 -83.5 -20.5t-29.5 -61.5q0 -44 34 -67.5t93 -23.5zM202 597q-7 0 -10 4t1 10l81 133q5 7 14 7h63q16 0 6 -14l-96 -133
q-5 -7 -14 -7h-45z" />
    <glyph glyph-name="etatonos" unicode="&#x3ae;" horiz-adv-x="557" 
d="M235 597q-7 0 -10 4t1 10l81 133q5 7 14 7h63q16 0 6 -14l-96 -133q-5 -7 -14 -7h-45zM79 0q-11 0 -11 11v464q0 10 8 14q43 18 91.5 28.5t100.5 10.5q50 0 91.5 -12t71 -38.5t46 -67.5t16.5 -98v-301q0 -11 -12 -11h-59q-11 0 -11 11v299q0 78 -37.5 111t-105.5 33
q-32 0 -63.5 -5t-54.5 -13v-425q0 -11 -12 -11h-59z" />
    <glyph glyph-name="zero" unicode="0" horiz-adv-x="610" 
d="M544 225q0 -62 -20 -106.5t-53 -73t-76 -42.5t-89 -14t-89.5 14t-77 42.5t-53.5 73t-20 106.5v267q0 61 20 105.5t53.5 73t77 42t89.5 13.5t89 -13.5t76 -42t53 -73t20 -105.5v-267zM149 222q0 -42 13 -71t35 -47t50.5 -26.5t58.5 -8.5t58 8.5t49.5 26.5t34.5 47t13 71
v267q0 43 -13 73t-34.5 48.5t-49.5 27t-58 8.5q-31 0 -59.5 -8.5t-50 -27t-34.5 -48.5t-13 -73v-267z" />
    <glyph glyph-name="one" unicode="1" horiz-adv-x="358" 
d="M199 0q-12 0 -12 11v605l-123 -82q-10 -6 -16 3l-28 46q-3 4 -2 8.5t5 7.5l169 112q7 4 15 4h51q12 0 12 -11v-693q0 -11 -12 -11h-59z" />
    <glyph glyph-name="two" unicode="2" horiz-adv-x="554" 
d="M51 0q-11 0 -11 11v41q0 9 6 14l195 205q35 37 65.5 71t53 66t35 62.5t12.5 61.5q0 21 -7 42t-22.5 37.5t-39.5 26.5t-58 10q-30 0 -55.5 -7.5t-47 -19.5t-39.5 -28t-34 -33q-7 -9 -16 0l-32 44q-6 8 0 16q18 20 40 39t49.5 34t60.5 24t73 9q47 0 86 -13.5t67 -38
t43.5 -60.5t15.5 -81q0 -38 -12.5 -73.5t-35 -72t-55.5 -75t-73 -82.5q-26 -29 -63.5 -68.5t-83.5 -84.5h327q11 0 11 -12v-54q0 -11 -11 -11h-444z" />
    <glyph glyph-name="three" unicode="3" horiz-adv-x="564" 
d="M515 222q0 -54 -18 -97t-50.5 -73t-76.5 -46t-96 -16q-82 0 -137 27.5t-100 71.5q-8 8 0 16l34 37q9 8 17 0q19 -16 38 -29.5t41 -23.5t48 -15.5t59 -5.5q70 0 113.5 40t43.5 115q0 71 -43 109t-124 38q-12 0 -28 -1.5t-33 -4.5q-10 -2 -13 8l-13 27q-5 8 2 16l128 139
q7 8 18 19.5t22.5 23.5t22.5 23t19 18h-309q-11 0 -11 12v54q0 11 11 11h407q11 0 11 -11v-39q0 -7 -5 -14l-206 -222l7 -1q46 1 86 -13t70 -40.5t47.5 -65t17.5 -87.5z" />
    <glyph glyph-name="four" unicode="4" horiz-adv-x="558" 
d="M378 0q-11 0 -11 11v156h-327q-12 0 -12 11v44q0 7 4 14l260 471q4 8 13 8h70q15 0 8 -14l-253 -458h237v153q0 11 11 11h60q12 0 12 -11v-153h67q11 0 11 -11v-54q0 -11 -11 -11h-67v-156q0 -11 -12 -11h-60z" />
    <glyph glyph-name="five" unicode="5" horiz-adv-x="576" 
d="M529 236q0 -56 -16.5 -101t-48 -77t-76 -49.5t-100.5 -17.5q-69 0 -125.5 24t-103.5 72q-7 9 0 16l40 41q7 8 16 -1q38 -36 79.5 -54.5t95.5 -18.5q75 0 115 44t40 121q0 80 -39 117t-113 37q-51 0 -86 -14.5t-62 -40.5q-7 -7 -15 -4l-48 17q-10 3 -10 13l13 344
q0 11 12 11h384q12 0 12 -11v-56q0 -11 -12 -11h-321l-8 -214q61 45 148 45q51 0 93 -14.5t72.5 -44t47 -73t16.5 -100.5z" />
    <glyph glyph-name="six" unicode="6" horiz-adv-x="589" 
d="M150 385q56 71 162 71t168 -58.5t62 -169.5q0 -54 -17.5 -98t-49 -75.5t-75.5 -48.5t-96 -17q-53 0 -96.5 16.5t-75 47t-49 73.5t-17.5 95v273q0 57 19 100.5t51.5 73t75 44t90.5 14.5q59 0 111.5 -19t95.5 -54q7 -7 1 -16l-32 -43q-6 -11 -16 -3q-32 26 -72.5 41.5
t-86.5 15.5q-32 0 -59.5 -9.5t-48.5 -28.5t-33 -47t-12 -65v-113zM150 221q0 -71 42 -112t114 -41q71 0 111.5 42t40.5 117q0 73 -37 112t-112 39q-31 0 -59.5 -8t-50.5 -25.5t-35.5 -45t-13.5 -66.5v-12z" />
    <glyph glyph-name="seven" unicode="7" horiz-adv-x="522" 
d="M102 0q-6 0 -8.5 4t0.5 10l300 621h-357q-11 0 -11 11v58q0 11 11 11h452q12 0 12 -11v-35q0 -7 -3 -13l-313 -648q-3 -8 -13 -8h-70z" />
    <glyph glyph-name="eight" unicode="8" horiz-adv-x="611" 
d="M556 205q0 -51 -18 -91t-51 -67.5t-79 -42.5t-102 -15t-102.5 15t-79.5 42.5t-51 67.5t-18 91q0 55 29 102.5t88 69.5q-49 22 -73.5 63t-24.5 95q0 40 16.5 74.5t47 60.5t73 41t95.5 15q52 0 94.5 -15t73 -41t47 -60.5t16.5 -74.5q0 -54 -24.5 -95t-73.5 -63
q59 -22 88 -69.5t29 -102.5zM139 206q0 -61 44 -100t123 -39q78 0 122 39t44 100q0 58 -44.5 93t-121.5 35q-78 0 -122.5 -35t-44.5 -93zM157 532q0 -56 38 -89.5t111 -33.5q72 0 110 33.5t38 89.5q0 55 -39.5 85.5t-108.5 30.5t-109 -30.5t-40 -85.5z" />
    <glyph glyph-name="nine" unicode="9" horiz-adv-x="589" 
d="M48 487q0 54 17.5 98t49 75.5t75 48.5t95.5 17t96 -16.5t75.5 -47t49 -73.5t17.5 -95v-273q0 -57 -19 -100.5t-51 -73t-74.5 -44t-90.5 -14.5q-60 0 -113.5 23t-96.5 64q-8 8 -1 16l33 45q6 9 16 1q32 -32 72.5 -51t88.5 -19q31 0 59 9.5t49 28.5t33 47t12 64v112
q-58 -70 -163 -70t-167 58.5t-62 169.5zM131 488q0 -73 37.5 -112t115.5 -39q30 0 58 8.5t49.5 26.5t35 45.5t13.5 64.5v12q0 72 -42.5 113t-113.5 41t-112 -42.5t-41 -117.5z" />
    <glyph glyph-name="zero.sinf" unicode="&#x2080;" horiz-adv-x="350" 
d="M310 27q0 -33 -11.5 -57.5t-30.5 -41t-43.5 -25t-49.5 -8.5q-26 0 -50 8.5t-43 25t-30.5 41t-11.5 57.5v133q0 33 11.5 58t30.5 41.5t43 25t50 8.5t50.5 -8.5t43 -25t30 -41.5t11.5 -58v-133zM98 30q0 -42 24 -60t53 -18t53 18t24 60v127q0 42 -24 60.5t-53 18.5
t-53 -18.5t-24 -60.5v-127z" />
    <glyph glyph-name="one.sinf" unicode="&#x2081;" horiz-adv-x="211" 
d="M111 -100q-11 0 -11 11v307l-50 -35q-8 -7 -15 3l-17 24q-6 7 3 15l82 58q5 5 14 5h30q11 0 11 -11v-366q0 -11 -11 -11h-36z" />
    <glyph glyph-name="two.sinf" unicode="&#x2082;" horiz-adv-x="319" 
d="M38 -100q-11 0 -11 11v30q0 9 5 14l106 103q35 37 59 67t24 62q0 50 -62 50q-29 0 -50 -12t-35 -27q-9 -9 -17 1l-18 25q-6 9 0 16q20 20 50.5 36.5t72.5 16.5q56 0 87 -29.5t31 -75.5q0 -23 -6.5 -43t-20 -40.5t-33.5 -42.5t-47 -48q-17 -16 -33 -31t-27 -26h163
q12 0 12 -11v-35q0 -11 -12 -11h-238z" />
    <glyph glyph-name="three.sinf" unicode="&#x2083;" horiz-adv-x="321" 
d="M289 22q0 -29 -10 -52.5t-28 -40t-42 -25.5t-51 -9q-47 1 -78 17t-55 39q-7 8 0 15l19 24q8 8 16 1q18 -19 42.5 -29.5t54.5 -10.5q33 0 54 20.5t21 56.5q0 29 -20 48.5t-57 19.5q-19 0 -34 -3q-11 -2 -14 8l-6 13q-3 9 3 16l71 80l24 25h-146q-11 0 -11 11v31
q0 11 11 11h216q11 0 11 -11v-19q0 -7 -6 -13l-100 -111h12q48 0 75.5 -32.5t27.5 -79.5z" />
    <glyph glyph-name="four.sinf" unicode="&#x2084;" horiz-adv-x="328" 
d="M217 -100q-11 0 -11 11v73h-174q-11 0 -11 11v22q0 6 3 14l138 249q5 8 13 8h37q15 0 8 -14l-129 -233h115v72q0 12 11 12h36q11 0 11 -12v-72h29q12 0 12 -12v-34q0 -11 -12 -11h-29v-73q0 -11 -11 -11h-36z" />
    <glyph glyph-name="five.sinf" unicode="&#x2085;" horiz-adv-x="333" 
d="M303 28q0 -65 -38 -99t-99 -34q-46 0 -75.5 15t-51.5 41q-7 8 2 17l19 23q5 5 8.5 4t7.5 -5q17 -18 38.5 -28t50.5 -10q36 0 57 19t22 57q0 39 -21 57t-56 18q-26 0 -44.5 -9t-32.5 -23q-7 -7 -16 -4l-24 8q-9 2 -9 13l6 189q0 11 12 11h211q11 0 11 -11v-33
q0 -12 -11 -12h-173l-3 -104q32 29 81 29q25 0 48 -8t41 -23.5t28.5 -40t10.5 -57.5z" />
    <glyph glyph-name="six.sinf" unicode="&#x2086;" horiz-adv-x="336" 
d="M305 27q0 -60 -36.5 -96t-93.5 -36q-61 0 -98 36t-37 96v143q0 30 10.5 52.5t28.5 38.5t42 24t52 8q35 0 63.5 -12.5t51.5 -32.5q8 -7 2 -16l-19 -23q-7 -11 -16 -2q-17 13 -36 22t-45 9q-35 0 -55.5 -19t-20.5 -51v-56q14 17 34 27t47 10q26 0 49 -8t40 -23t27 -38
t10 -53zM98 27q0 -35 21 -55t53 -20q34 0 54.5 20.5t20.5 54.5q0 32 -19.5 50.5t-54.5 18.5q-33 0 -54 -19t-21 -50z" />
    <glyph glyph-name="seven.sinf" unicode="&#x2087;" horiz-adv-x="304" 
d="M69 -100q-6 0 -8 4t0 9l151 318h-179q-11 0 -11 11v35q0 11 11 11h239q12 0 12 -11v-24q0 -7 -3 -14l-158 -331q-4 -8 -13 -8h-41z" />
    <glyph glyph-name="eight.sinf" unicode="&#x2088;" horiz-adv-x="346" 
d="M311 14q0 -56 -38.5 -87.5t-99.5 -31.5t-99.5 31.5t-38.5 87.5q0 29 15.5 54t47.5 37q-54 24 -54 83q0 48 35 76.5t94 28.5q57 0 92.5 -28.5t35.5 -76.5q0 -59 -53 -83q32 -12 47.5 -37t15.5 -54zM102 186q0 -23 18 -39.5t53 -16.5t53 16.5t18 39.5q0 24 -19.5 38.5
t-51.5 14.5t-51.5 -14.5t-19.5 -38.5zM94 15q0 -27 20.5 -45t58.5 -18t58.5 18t20.5 45q0 26 -20.5 42t-58.5 16t-58.5 -16t-20.5 -42z" />
    <glyph glyph-name="nine.sinf" unicode="&#x2089;" horiz-adv-x="338" 
d="M32 163q0 59 36.5 94.5t93.5 35.5q61 0 98 -35.5t37 -96.5v-143q0 -30 -10 -52.5t-28 -38.5t-42.5 -24t-52.5 -8q-35 0 -64.5 12.5t-52.5 32.5q-8 7 -2 16l19 23q7 11 16 2q17 -13 36.5 -22t46.5 -9q35 0 55.5 19t20.5 51v57q-14 -17 -34 -27.5t-47 -10.5q-26 0 -49 8
t-40 23.5t-27 38.5t-10 54zM239 161q0 35 -21 55t-53 20q-34 0 -54.5 -20t-20.5 -53t19.5 -52t54.5 -19q33 0 54 19t21 50z" />
    <glyph glyph-name="zero.tf" horiz-adv-x="580" 
d="M529 225q0 -62 -20 -106.5t-53 -73t-76 -42.5t-89 -14t-89.5 14t-77 42.5t-53.5 73t-20 106.5v267q0 61 20 105.5t53.5 73t77 42t89.5 13.5t89 -13.5t76 -42t53 -73t20 -105.5v-267zM134 222q0 -42 13 -71t35 -47t50.5 -26.5t58.5 -8.5t58 8.5t49.5 26.5t34.5 47t13 71
v267q0 43 -13 73t-34.5 48.5t-49.5 27t-58 8.5q-31 0 -59.5 -8.5t-50 -27t-34.5 -48.5t-13 -73v-267z" />
    <glyph glyph-name="one.tf" horiz-adv-x="580" 
d="M346 78h157q12 0 12 -11v-56q0 -11 -12 -11h-398q-11 0 -11 11v56q0 11 11 11h158v538l-123 -82q-8 -7 -15 3l-29 46q-7 9 4 16l169 112q5 4 14 4h52q11 0 11 -11v-626z" />
    <glyph glyph-name="two.tf" horiz-adv-x="580" 
d="M64 0q-11 0 -11 11v41q0 9 6 14l195 205q35 37 65.5 71t53 66t35 62.5t12.5 61.5q0 21 -7 42t-22.5 37.5t-39.5 26.5t-58 10q-30 0 -55.5 -7.5t-47 -19.5t-39.5 -28t-34 -33q-7 -9 -16 0l-32 44q-6 8 0 16q18 20 40 39t49.5 34t60.5 24t73 9q47 0 86 -13.5t67 -38
t43.5 -60.5t15.5 -81q0 -38 -12.5 -73.5t-35 -72t-55.5 -75t-73 -82.5q-26 -29 -63.5 -68.5t-83.5 -84.5h327q11 0 11 -12v-54q0 -11 -11 -11h-444z" />
    <glyph glyph-name="three.tf" horiz-adv-x="580" 
d="M523 222q0 -54 -18 -97t-50.5 -73t-76.5 -46t-96 -16q-82 0 -137 27.5t-100 71.5q-8 8 0 16l34 37q9 8 17 0q19 -16 38 -29.5t41 -23.5t48 -15.5t59 -5.5q70 0 113.5 40t43.5 115q0 71 -43 109t-124 38q-12 0 -28 -1.5t-33 -4.5q-10 -2 -13 8l-13 27q-5 8 2 16l128 139
q7 8 18 19.5t22.5 23.5t22.5 23t19 18h-309q-11 0 -11 12v54q0 11 11 11h407q11 0 11 -11v-39q0 -7 -5 -14l-206 -222l7 -1q46 1 86 -13t70 -40.5t47.5 -65t17.5 -87.5z" />
    <glyph glyph-name="four.tf" horiz-adv-x="580" 
d="M389 0q-11 0 -11 11v156h-327q-12 0 -12 11v44q0 7 4 14l260 471q4 8 13 8h70q15 0 8 -14l-253 -458h237v153q0 11 11 11h60q12 0 12 -11v-153h67q11 0 11 -11v-54q0 -11 -11 -11h-67v-156q0 -11 -12 -11h-60z" />
    <glyph glyph-name="five.tf" horiz-adv-x="580" 
d="M531 236q0 -56 -16.5 -101.5t-48 -77.5t-76 -50t-100.5 -18q-69 0 -125.5 25t-103.5 73q-7 9 0 16l40 41q8 9 16 -1q38 -36 80 -55.5t96 -19.5q74 0 114 45t40 122q0 80 -39 117t-113 37q-51 0 -86 -14.5t-62 -40.5q-6 -7 -15 -4l-51 17q-10 4 -10 13l13 344q0 11 12 11
h387q12 0 12 -11v-56q0 -11 -12 -11h-318l-7 -214q31 23 65 34t79 11q51 0 93 -14.5t72.5 -44t47 -73t16.5 -100.5z" />
    <glyph glyph-name="six.tf" horiz-adv-x="580" 
d="M146 385q56 71 162 71t168 -58.5t62 -169.5q0 -54 -17.5 -98t-49 -75.5t-75.5 -48.5t-96 -17q-53 0 -96.5 16.5t-75 47t-49 73.5t-17.5 95v273q0 57 19 100.5t51.5 73t75 44t90.5 14.5q59 0 111.5 -19t95.5 -54q7 -7 1 -16l-32 -43q-6 -11 -16 -3q-32 26 -72.5 41.5
t-86.5 15.5q-32 0 -59.5 -9.5t-48.5 -28.5t-33 -47t-12 -65v-113zM146 221q0 -71 42 -112t114 -41q71 0 111.5 42t40.5 117q0 73 -37 112t-112 39q-31 0 -59.5 -8t-50.5 -25.5t-35.5 -45t-13.5 -66.5v-12z" />
    <glyph glyph-name="seven.tf" horiz-adv-x="580" 
d="M131 0q-6 0 -8.5 4t0.5 10l300 621h-357q-11 0 -11 11v58q0 11 11 11h452q12 0 12 -11v-35q0 -7 -3 -13l-313 -648q-3 -8 -13 -8h-70z" />
    <glyph glyph-name="eight.tf" horiz-adv-x="580" 
d="M541 205q0 -51 -18 -91t-51 -67.5t-79 -42.5t-102 -15t-102.5 15t-79.5 42.5t-51 67.5t-18 91q0 55 29 102.5t88 69.5q-49 22 -73.5 63t-24.5 95q0 40 16.5 74.5t47 60.5t73 41t95.5 15q52 0 94.5 -15t73 -41t47 -60.5t16.5 -74.5q0 -54 -24.5 -95t-73.5 -63
q59 -22 88 -69.5t29 -102.5zM124 206q0 -61 44 -100t123 -39q78 0 122 39t44 100q0 58 -44.5 93t-121.5 35q-78 0 -122.5 -35t-44.5 -93zM142 532q0 -56 38 -89.5t111 -33.5q72 0 110 33.5t38 89.5q0 55 -39.5 85.5t-108.5 30.5t-109 -30.5t-40 -85.5z" />
    <glyph glyph-name="nine.tf" horiz-adv-x="580" 
d="M43 487q0 54 17.5 98t49 75.5t75 48.5t95.5 17t96 -16.5t75.5 -47t49 -73.5t17.5 -95v-273q0 -57 -19 -100.5t-51 -73t-74.5 -44t-90.5 -14.5q-60 0 -113.5 23t-96.5 64q-8 8 -1 16l33 45q6 9 16 1q32 -32 72.5 -51t88.5 -19q31 0 59 9.5t49 28.5t33 47t12 64v112
q-58 -70 -163 -70t-167 58.5t-62 169.5zM126 488q0 -73 37.5 -112t115.5 -39q30 0 58 8.5t49.5 26.5t35 45.5t13.5 64.5v12q0 72 -42.5 113t-113.5 41t-112 -42.5t-41 -117.5z" />
    <glyph glyph-name="zero.dnom" horiz-adv-x="350" 
d="M310 127q0 -33 -11.5 -57.5t-30.5 -41t-43.5 -25t-49.5 -8.5q-26 0 -50 8.5t-43 25t-30.5 41t-11.5 57.5v133q0 33 11.5 58t30.5 41.5t43 25t50 8.5t50.5 -8.5t43 -25t30 -41.5t11.5 -58v-133zM98 130q0 -42 24 -60t53 -18t53 18t24 60v127q0 42 -24 60.5t-53 18.5
t-53 -18.5t-24 -60.5v-127z" />
    <glyph glyph-name="one.dnom" horiz-adv-x="211" 
d="M111 0q-11 0 -11 11v307l-50 -35q-8 -7 -15 3l-17 24q-6 7 3 15l82 58q5 5 14 5h30q11 0 11 -11v-366q0 -11 -11 -11h-36z" />
    <glyph glyph-name="two.dnom" horiz-adv-x="319" 
d="M38 0q-11 0 -11 11v30q0 9 5 14l106 103q35 37 59 67t24 62q0 50 -62 50q-29 0 -50 -12t-35 -27q-9 -9 -17 1l-18 25q-6 9 0 16q20 20 50.5 36.5t72.5 16.5q56 0 87 -29.5t31 -75.5q0 -23 -6.5 -43t-20 -40.5t-33.5 -42.5t-47 -48q-17 -16 -33 -31t-27 -26h163
q12 0 12 -11v-35q0 -11 -12 -11h-238z" />
    <glyph glyph-name="three.dnom" horiz-adv-x="321" 
d="M289 122q0 -29 -10 -52.5t-28 -40t-42 -25.5t-51 -9q-47 1 -78 17t-55 39q-7 8 0 15l19 24q8 8 16 1q18 -19 42.5 -29.5t54.5 -10.5q33 0 54 20.5t21 56.5q0 29 -20 48.5t-57 19.5q-19 0 -34 -3q-11 -2 -14 8l-6 13q-3 9 3 16l71 80l24 25h-146q-11 0 -11 11v31
q0 11 11 11h216q11 0 11 -11v-19q0 -7 -6 -13l-100 -111h12q48 0 75.5 -32.5t27.5 -79.5z" />
    <glyph glyph-name="four.dnom" horiz-adv-x="328" 
d="M217 0q-11 0 -11 11v73h-174q-11 0 -11 11v22q0 6 3 14l138 249q5 8 13 8h37q15 0 8 -14l-129 -233h115v72q0 12 11 12h36q11 0 11 -12v-72h29q12 0 12 -12v-34q0 -11 -12 -11h-29v-73q0 -11 -11 -11h-36z" />
    <glyph glyph-name="five.dnom" horiz-adv-x="333" 
d="M302 128q0 -65 -38 -99t-99 -34q-46 0 -75.5 15t-51.5 41q-7 8 2 17l19 23q5 5 8.5 4t7.5 -5q17 -18 38.5 -28t50.5 -10q36 0 57 19t22 57q0 39 -21 57t-56 18q-26 0 -44.5 -9t-32.5 -23q-7 -7 -16 -4l-24 8q-9 2 -9 13l6 189q0 11 12 11h211q11 0 11 -11v-33
q0 -12 -11 -12h-173l-3 -104q32 29 81 29q25 0 48 -8t41 -23.5t28.5 -40t10.5 -57.5z" />
    <glyph glyph-name="six.dnom" horiz-adv-x="336" 
d="M305 127q0 -60 -36.5 -96t-93.5 -36q-61 0 -98 36t-37 96v143q0 30 10.5 52.5t28.5 38.5t42.5 24t52.5 8q35 0 64.5 -12.5t52.5 -32.5q8 -7 1 -16l-18 -23q-7 -11 -16 -2q-17 13 -36.5 22t-45.5 9q-36 0 -57 -19t-21 -51v-56q14 17 34 27t47 10q26 0 49 -8t40 -23t27 -38
t10 -53zM98 127q0 -35 21 -55t53 -20q34 0 54.5 20.5t20.5 54.5q0 32 -19.5 50.5t-54.5 18.5q-33 0 -54 -19t-21 -50z" />
    <glyph glyph-name="seven.dnom" horiz-adv-x="304" 
d="M69 0q-6 0 -8 4t0 9l151 318h-179q-11 0 -11 11v35q0 11 11 11h239q12 0 12 -11v-24q0 -7 -3 -14l-158 -331q-4 -8 -13 -8h-41z" />
    <glyph glyph-name="eight.dnom" horiz-adv-x="346" 
d="M311 114q0 -56 -38.5 -87.5t-99.5 -31.5t-99.5 31.5t-38.5 87.5q0 29 15.5 54t47.5 37q-54 24 -54 83q0 48 35 76.5t94 28.5q57 0 92.5 -28.5t35.5 -76.5q0 -59 -53 -83q32 -12 47.5 -37t15.5 -54zM102 286q0 -23 18 -39.5t53 -16.5t53 16.5t18 39.5q0 24 -19.5 38.5
t-51.5 14.5t-51.5 -14.5t-19.5 -38.5zM94 115q0 -27 20.5 -45t58.5 -18t58.5 18t20.5 45q0 26 -20.5 42t-58.5 16t-58.5 -16t-20.5 -42z" />
    <glyph glyph-name="nine.dnom" horiz-adv-x="338" 
d="M32 266q0 57 36.5 92t95.5 35q60 0 97 -35t37 -95v-145q0 -30 -10 -52.5t-28 -38.5t-42.5 -24t-52.5 -8q-36 0 -66.5 13.5t-53.5 36.5q-7 7 -1 17l19 24q7 11 16 2q17 -16 37.5 -26.5t46.5 -10.5q36 0 56.5 18.5t20.5 50.5v58q-13 -17 -34 -27.5t-48 -10.5q-26 0 -48.5 8
t-40 24t-27.5 39.5t-10 54.5zM240 264q0 34 -21 54t-54 20t-53.5 -20t-20.5 -52q0 -35 19.5 -54t53.5 -19q35 0 55.5 19.5t20.5 51.5z" />
    <glyph glyph-name="zero.numr" horiz-adv-x="350" 
d="M310 454q0 -33 -11.5 -57.5t-30.5 -41t-43.5 -25t-49.5 -8.5q-26 0 -50 8.5t-43 25t-30.5 41t-11.5 57.5v133q0 33 11.5 58t30.5 41.5t43 25t50 8.5t50.5 -8.5t43 -25t30 -41.5t11.5 -58v-133zM98 457q0 -42 24 -60t53 -18t53 18t24 60v127q0 42 -24 60.5t-53 18.5
t-53 -18.5t-24 -60.5v-127z" />
    <glyph glyph-name="one.numr" horiz-adv-x="211" 
d="M111 327q-11 0 -11 11v307l-50 -35q-8 -7 -15 3l-17 23q-6 9 3 16l82 58q7 5 14 5h30q11 0 11 -12v-365q0 -11 -11 -11h-36z" />
    <glyph glyph-name="two.numr" horiz-adv-x="319" 
d="M38 327q-11 0 -11 11v30q0 9 5 14l106 103q35 37 59 67t24 62q0 50 -62 50q-29 0 -50 -12t-35 -27q-9 -9 -17 1l-18 25q-6 9 0 16q20 20 50.5 36.5t72.5 16.5q56 0 87 -29.5t31 -75.5q0 -23 -6.5 -43t-20 -40.5t-33.5 -42.5t-47 -48q-17 -16 -33 -31t-27 -26h163
q12 0 12 -11v-35q0 -11 -12 -11h-238z" />
    <glyph glyph-name="three.numr" horiz-adv-x="321" 
d="M289 449q0 -29 -10 -52.5t-28 -40t-42 -25.5t-51 -9q-47 1 -78 17t-55 39q-7 8 0 15l19 24q8 8 16 1q18 -19 42.5 -29.5t54.5 -10.5q33 0 54 20.5t21 56.5q0 29 -20 48.5t-57 19.5q-19 0 -34 -3q-11 -2 -14 8l-6 13q-3 9 3 16l71 80l24 25h-146q-11 0 -11 11v31
q0 11 11 11h216q11 0 11 -11v-19q0 -7 -6 -13l-100 -111h12q48 0 75.5 -32.5t27.5 -79.5z" />
    <glyph glyph-name="four.numr" horiz-adv-x="328" 
d="M217 327q-11 0 -11 11v73h-174q-11 0 -11 11v22q0 6 3 14l138 249q5 8 13 8h37q15 0 8 -14l-129 -233h115v72q0 12 11 12h36q11 0 11 -12v-72h29q12 0 12 -12v-34q0 -11 -12 -11h-29v-73q0 -11 -11 -11h-36z" />
    <glyph glyph-name="five.numr" horiz-adv-x="333" 
d="M302 455q0 -65 -38 -99t-99 -34q-46 0 -75.5 15t-51.5 41q-7 8 2 17l19 23q5 5 8.5 4t7.5 -5q17 -18 38.5 -28t50.5 -10q36 0 57 19t22 57q0 39 -21 57t-56 18q-26 0 -44.5 -9t-32.5 -23q-7 -7 -16 -4l-24 8q-9 2 -9 13l6 189q0 11 12 11h211q11 0 11 -11v-33
q0 -12 -11 -12h-173l-3 -104q32 29 81 29q25 0 48 -8t41 -23.5t28.5 -40t10.5 -57.5z" />
    <glyph glyph-name="six.numr" horiz-adv-x="336" 
d="M305 454q0 -60 -36.5 -96t-93.5 -36q-61 0 -98 36t-37 96v143q0 30 10.5 52.5t28.5 38.5t42 24t52 8q35 0 63.5 -12.5t51.5 -32.5q8 -7 2 -16l-19 -23q-7 -11 -16 -2q-17 13 -36 22t-45 9q-35 0 -55.5 -19t-20.5 -51v-56q14 17 34 27t47 10q26 0 49 -8t40 -23t27 -38
t10 -53zM98 454q0 -35 21 -55t53 -20q34 0 54.5 20.5t20.5 54.5q0 32 -19.5 50.5t-54.5 18.5q-33 0 -54 -19t-21 -50z" />
    <glyph glyph-name="seven.numr" horiz-adv-x="304" 
d="M69 327q-6 0 -8 4t0 9l151 318h-179q-11 0 -11 11v35q0 11 11 11h240q11 0 11 -11v-24q0 -7 -3 -14l-158 -331q-3 -8 -13 -8h-41z" />
    <glyph glyph-name="eight.numr" horiz-adv-x="346" 
d="M311 441q0 -56 -38.5 -87.5t-99.5 -31.5t-99.5 31.5t-38.5 87.5q0 29 15.5 54t47.5 37q-54 24 -54 83q0 48 35 76.5t94 28.5q57 0 92.5 -28.5t35.5 -76.5q0 -59 -53 -83q32 -12 47.5 -37t15.5 -54zM102 613q0 -23 18 -39.5t53 -16.5t53 16.5t18 39.5q0 24 -19.5 38.5
t-51.5 14.5t-51.5 -14.5t-19.5 -38.5zM94 442q0 -27 20.5 -45t58.5 -18t58.5 18t20.5 45q0 26 -20.5 42t-58.5 16t-58.5 -16t-20.5 -42z" />
    <glyph glyph-name="nine.numr" horiz-adv-x="338" 
d="M32 593q0 57 36.5 92t95.5 35q60 0 97 -35t37 -95v-145q0 -30 -10 -52.5t-28 -38.5t-42.5 -24t-52.5 -8q-36 0 -66.5 13.5t-53.5 36.5q-7 7 -1 17l19 24q7 11 16 2q17 -16 37.5 -26.5t46.5 -10.5q36 0 56.5 18.5t20.5 50.5v58q-13 -17 -34 -27.5t-48 -10.5q-26 0 -48.5 8
t-40 24t-27.5 39.5t-10 54.5zM240 591q0 34 -21 54t-54 20t-53.5 -20t-20.5 -52q0 -35 19.5 -54t53.5 -19q35 0 55.5 19.5t20.5 51.5z" />
    <glyph glyph-name="zero.sups" unicode="&#x2070;" horiz-adv-x="350" 
d="M310 537q0 -33 -11.5 -57.5t-30.5 -41t-43.5 -25t-49.5 -8.5q-26 0 -50 8.5t-43 25t-30.5 41t-11.5 57.5v133q0 33 11.5 58t30.5 41.5t43 25t50 8.5t50.5 -8.5t43 -25t30 -41.5t11.5 -58v-133zM98 540q0 -42 24 -60t53 -18t53 18t24 60v127q0 42 -24 60.5t-53 18.5
t-53 -18.5t-24 -60.5v-127z" />
    <glyph glyph-name="one.sups" unicode="&#xb9;" horiz-adv-x="211" 
d="M111 410q-11 0 -11 11v307l-50 -35q-8 -7 -15 3l-17 23q-6 9 3 16l82 58q7 5 14 5h30q11 0 11 -12v-365q0 -11 -11 -11h-36z" />
    <glyph glyph-name="two.sups" unicode="&#xb2;" horiz-adv-x="319" 
d="M38 410q-11 0 -11 11v30q0 9 5 14l106 103q35 37 59 67t24 62q0 50 -62 50q-29 0 -50 -12t-35 -27q-9 -9 -17 1l-18 25q-6 9 0 16q20 20 50.5 36.5t72.5 16.5q56 0 87 -29.5t31 -75.5q0 -23 -6.5 -43t-20 -40.5t-33.5 -42.5t-47 -48q-17 -16 -33 -31t-27 -26h163
q12 0 12 -11v-35q0 -11 -12 -11h-238z" />
    <glyph glyph-name="three.sups" unicode="&#xb3;" horiz-adv-x="321" 
d="M289 532q0 -29 -10 -52.5t-28 -40t-42 -25.5t-51 -9q-47 1 -78 17t-55 39q-7 8 0 15l19 24q8 8 16 1q18 -19 42.5 -29.5t54.5 -10.5q33 0 54 20.5t21 56.5q0 29 -20 48.5t-57 19.5q-19 0 -34 -3q-11 -2 -14 8l-6 13q-3 9 3 16l71 80l24 25h-146q-11 0 -11 11v31
q0 11 11 11h216q11 0 11 -11v-19q0 -7 -6 -13l-100 -111h12q48 0 75.5 -32.5t27.5 -79.5z" />
    <glyph glyph-name="four.sups" unicode="&#x2074;" horiz-adv-x="328" 
d="M217 410q-11 0 -11 11v73h-174q-11 0 -11 11v22q0 6 3 14l138 249q5 8 13 8h37q15 0 8 -14l-129 -233h115v72q0 12 11 12h36q11 0 11 -12v-72h29q12 0 12 -12v-34q0 -11 -12 -11h-29v-73q0 -11 -11 -11h-36z" />
    <glyph glyph-name="five.sups" unicode="&#x2075;" horiz-adv-x="333" 
d="M302 538q0 -65 -38 -99t-99 -34q-46 0 -75.5 15t-51.5 41q-7 8 2 17l19 23q5 5 8.5 4t7.5 -5q17 -18 38.5 -28t50.5 -10q36 0 57 19t22 57q0 39 -21 57t-56 18q-26 0 -44.5 -9t-32.5 -23q-7 -7 -16 -4l-24 8q-9 2 -9 13l6 189q0 11 12 11h211q11 0 11 -11v-33
q0 -12 -11 -12h-173l-3 -104q32 29 81 29q25 0 48 -8t41 -23.5t28.5 -40t10.5 -57.5z" />
    <glyph glyph-name="six.sups" unicode="&#x2076;" horiz-adv-x="336" 
d="M305 537q0 -60 -36.5 -96t-93.5 -36q-61 0 -98 36t-37 96v143q0 30 10.5 52.5t28.5 38.5t42.5 24t52.5 8q35 0 64.5 -12.5t52.5 -32.5q8 -7 1 -16l-18 -23q-7 -11 -16 -2q-17 13 -36.5 22t-45.5 9q-36 0 -57 -19t-21 -51v-56q14 17 34 27t47 10q26 0 49 -8t40 -23t27 -38
t10 -53zM98 537q0 -35 21 -55t53 -20q34 0 54.5 20.5t20.5 54.5q0 32 -19.5 50.5t-54.5 18.5q-33 0 -54 -19t-21 -50z" />
    <glyph glyph-name="seven.sups" unicode="&#x2077;" horiz-adv-x="304" 
d="M69 410q-6 0 -8 4t0 9l151 318h-179q-11 0 -11 11v35q0 11 11 11h240q11 0 11 -11v-24q0 -7 -3 -14l-158 -331q-3 -8 -13 -8h-41z" />
    <glyph glyph-name="eight.sups" unicode="&#x2078;" horiz-adv-x="346" 
d="M311 524q0 -56 -38.5 -87.5t-99.5 -31.5t-99.5 31.5t-38.5 87.5q0 29 15.5 54t47.5 37q-54 24 -54 83q0 48 35 76.5t94 28.5q57 0 92.5 -28.5t35.5 -76.5q0 -59 -53 -83q32 -12 47.5 -37t15.5 -54zM102 696q0 -23 18 -39.5t53 -16.5t53 16.5t18 39.5q0 24 -19.5 38.5
t-51.5 14.5t-51.5 -14.5t-19.5 -38.5zM94 525q0 -27 20.5 -45t58.5 -18t58.5 18t20.5 45q0 26 -20.5 42t-58.5 16t-58.5 -16t-20.5 -42z" />
    <glyph glyph-name="nine.sups" unicode="&#x2079;" horiz-adv-x="338" 
d="M32 676q0 57 36.5 92t95.5 35q60 0 97 -35t37 -95v-145q0 -30 -10 -52.5t-28 -38.5t-42.5 -24t-52.5 -8q-36 0 -66.5 13.5t-53.5 36.5q-7 7 -1 17l19 24q7 11 16 2q17 -16 37.5 -26.5t46.5 -10.5q36 0 56.5 18.5t20.5 50.5v58q-13 -17 -34 -27.5t-48 -10.5q-26 0 -48.5 8
t-40 24t-27.5 39.5t-10 54.5zM240 674q0 34 -21 54t-54 20t-53.5 -20t-20.5 -52q0 -35 19.5 -54t53.5 -19q35 0 55.5 19.5t20.5 51.5z" />
    <glyph glyph-name="fraction" unicode="&#x2044;" horiz-adv-x="189" 
d="M-138 7q-4 -7 -14 -7h-41q-7 0 -9 4.5t1 9.5l529 694q4 7 14 7h41q7 0 9 -4.5t-2 -9.5z" />
    <glyph glyph-name="onehalf" unicode="&#xbd;" horiz-adv-x="841" 
d="M124 327q-11 0 -11 11v307l-50 -35q-8 -7 -15 3l-17 23q-6 9 3 16l82 58q7 5 14 5h30q11 0 11 -12v-365q0 -11 -11 -11h-36zM136 7q-4 -7 -14 -7h-41q-7 0 -9 4.5t1 9.5l529 694q4 7 14 7h41q7 0 9 -4.5t-2 -9.5zM551 0q-11 0 -11 11v30q0 9 5 14l106 103q35 37 59 67
t24 62q0 50 -62 50q-29 0 -50 -12t-35 -27q-9 -9 -17 1l-18 25q-6 9 0 16q20 20 50.5 36.5t72.5 16.5q56 0 87 -29.5t31 -75.5q0 -23 -6.5 -43t-20 -40.5t-33.5 -42.5t-47 -48q-17 -16 -33 -31t-27 -26h163q12 0 12 -11v-35q0 -11 -12 -11h-238z" />
    <glyph glyph-name="onethird" unicode="&#x2153;" horiz-adv-x="848" 
d="M124 327q-11 0 -11 11v307l-50 -35q-8 -7 -15 3l-17 23q-6 9 3 16l82 58q7 5 14 5h30q11 0 11 -12v-365q0 -11 -11 -11h-36zM139 7q-4 -7 -14 -7h-41q-7 0 -9 4.5t1 9.5l529 694q4 7 14 7h41q7 0 9 -4.5t-2 -9.5zM804 122q0 -29 -10 -52.5t-28 -40t-42 -25.5t-51 -9
q-47 1 -78 17t-55 39q-7 8 0 15l19 24q8 8 16 1q18 -19 42.5 -29.5t54.5 -10.5q33 0 54 20.5t21 56.5q0 29 -20 48.5t-57 19.5q-19 0 -34 -3q-11 -2 -14 8l-6 13q-3 9 3 16l71 80l24 25h-146q-11 0 -11 11v31q0 11 11 11h216q11 0 11 -11v-19q0 -7 -6 -13l-100 -111h12
q48 0 75.5 -32.5t27.5 -79.5z" />
    <glyph glyph-name="twothirds" unicode="&#x2154;" horiz-adv-x="923" 
d="M54 327q-11 0 -11 11v30q0 9 5 14l106 103q35 37 59 67t24 62q0 50 -62 50q-29 0 -50 -12t-35 -27q-9 -9 -17 1l-18 25q-6 9 0 16q20 20 50.5 36.5t72.5 16.5q56 0 87 -29.5t31 -75.5q0 -23 -6.5 -43t-20 -40.5t-33.5 -42.5t-47 -48q-17 -16 -33 -31t-27 -26h163
q12 0 12 -11v-35q0 -11 -12 -11h-238zM221 7q-4 -7 -14 -7h-41q-7 0 -9 4.5t1 9.5l529 694q4 7 14 7h41q7 0 9 -4.5t-2 -9.5zM879 122q0 -29 -10 -52.5t-28 -40t-42 -25.5t-51 -9q-47 1 -78 17t-55 39q-7 8 0 15l19 24q8 8 16 1q18 -19 42.5 -29.5t54.5 -10.5q33 0 54 20.5
t21 56.5q0 29 -20 48.5t-57 19.5q-19 0 -34 -3q-11 -2 -14 8l-6 13q-3 9 3 16l71 80l24 25h-146q-11 0 -11 11v31q0 11 11 11h216q11 0 11 -11v-19q0 -7 -6 -13l-100 -111h12q48 0 75.5 -32.5t27.5 -79.5z" />
    <glyph glyph-name="onequarter" unicode="&#xbc;" horiz-adv-x="812" 
d="M124 327q-11 0 -11 11v307l-50 -35q-8 -7 -15 3l-17 23q-6 9 3 16l82 58q7 5 14 5h30q11 0 11 -12v-365q0 -11 -11 -11h-36zM136 7q-4 -7 -14 -7h-41q-7 0 -9 4.5t1 9.5l529 694q4 7 14 7h41q7 0 9 -4.5t-2 -9.5zM696 0q-11 0 -11 11v73h-174q-11 0 -11 11v22q0 6 3 14
l138 249q5 8 13 8h37q15 0 8 -14l-129 -233h115v72q0 12 11 12h36q11 0 11 -12v-72h29q12 0 12 -12v-34q0 -11 -12 -11h-29v-73q0 -11 -11 -11h-36z" />
    <glyph glyph-name="threequarters" unicode="&#xbe;" horiz-adv-x="852" 
d="M301 449q0 -29 -10 -52.5t-28 -40t-42 -25.5t-51 -9q-47 1 -78 17t-55 39q-7 8 0 15l19 24q8 8 16 1q18 -19 42.5 -29.5t54.5 -10.5q33 0 54 20.5t21 56.5q0 29 -20 48.5t-57 19.5q-19 0 -34 -3q-11 -2 -14 8l-6 13q-3 9 3 16l71 80l24 25h-146q-11 0 -11 11v31
q0 11 11 11h216q11 0 11 -11v-19q0 -7 -6 -13l-100 -111h12q48 0 75.5 -32.5t27.5 -79.5zM203 7q-4 -7 -14 -7h-41q-7 0 -9 4.5t1 9.5l529 694q4 7 14 7h41q7 0 9 -4.5t-2 -9.5zM734 0q-11 0 -11 11v73h-174q-11 0 -11 11v22q0 6 3 14l138 249q5 8 13 8h37q15 0 8 -14
l-129 -233h115v72q0 12 11 12h36q11 0 11 -12v-72h29q12 0 12 -12v-34q0 -11 -12 -11h-29v-73q0 -11 -11 -11h-36z" />
    <glyph glyph-name="oneeighth" unicode="&#x215b;" horiz-adv-x="883" 
d="M123 327q-11 0 -11 11v307l-50 -35q-8 -7 -15 3l-17 23q-6 9 3 16l82 58q7 5 14 5h30q11 0 11 -12v-365q0 -11 -11 -11h-36zM142 7q-4 -7 -14 -7h-41q-7 0 -9 4.5t1 9.5l529 694q4 7 14 7h41q7 0 9 -4.5t-2 -9.5zM844 114q0 -56 -38.5 -87.5t-99.5 -31.5t-99.5 31.5
t-38.5 87.5q0 29 15.5 54t47.5 37q-54 24 -54 83q0 48 35 76.5t94 28.5q57 0 92.5 -28.5t35.5 -76.5q0 -59 -53 -83q32 -12 47.5 -37t15.5 -54zM635 286q0 -23 18 -39.5t53 -16.5t53 16.5t18 39.5q0 24 -19.5 38.5t-51.5 14.5t-51.5 -14.5t-19.5 -38.5zM627 115
q0 -27 20.5 -45t58.5 -18t58.5 18t20.5 45q0 26 -20.5 42t-58.5 16t-58.5 -16t-20.5 -42z" />
    <glyph glyph-name="threeeighths" unicode="&#x215c;" horiz-adv-x="919" 
d="M301 449q0 -29 -10 -52.5t-28 -40t-42 -25.5t-51 -9q-47 1 -78 17t-55 39q-7 8 0 15l19 24q8 8 16 1q18 -19 42.5 -29.5t54.5 -10.5q33 0 54 20.5t21 56.5q0 29 -20 48.5t-57 19.5q-19 0 -34 -3q-11 -2 -14 8l-6 13q-3 9 3 16l71 80l24 25h-146q-11 0 -11 11v31
q0 11 11 11h216q11 0 11 -11v-19q0 -7 -6 -13l-100 -111h12q48 0 75.5 -32.5t27.5 -79.5zM216 7q-4 -7 -14 -7h-41q-7 0 -9 4.5t1 9.5l529 694q4 7 14 7h41q7 0 9 -4.5t-2 -9.5zM878 114q0 -56 -38.5 -87.5t-99.5 -31.5t-99.5 31.5t-38.5 87.5q0 29 15.5 54t47.5 37
q-54 24 -54 83q0 48 35 76.5t94 28.5q57 0 92.5 -28.5t35.5 -76.5q0 -59 -53 -83q32 -12 47.5 -37t15.5 -54zM669 286q0 -23 18 -39.5t53 -16.5t53 16.5t18 39.5q0 24 -19.5 38.5t-51.5 14.5t-51.5 -14.5t-19.5 -38.5zM661 115q0 -27 20.5 -45t58.5 -18t58.5 18t20.5 45
q0 26 -20.5 42t-58.5 16t-58.5 -16t-20.5 -42z" />
    <glyph glyph-name="fiveeighths" unicode="&#x215d;" horiz-adv-x="924" 
d="M312 455q0 -65 -38 -99t-99 -34q-46 0 -75.5 15t-51.5 41q-7 8 2 17l19 23q5 5 8.5 4t7.5 -5q17 -18 38.5 -28t50.5 -10q36 0 57 19t22 57q0 39 -21 57t-56 18q-26 0 -44.5 -9t-32.5 -23q-7 -7 -16 -4l-24 8q-9 2 -9 13l6 189q0 11 12 11h211q11 0 11 -11v-33
q0 -12 -11 -12h-173l-3 -104q32 29 81 29q25 0 48 -8t41 -23.5t28.5 -40t10.5 -57.5zM223 7q-4 -7 -14 -7h-41q-7 0 -9 4.5t1 9.5l529 694q4 7 14 7h41q7 0 9 -4.5t-2 -9.5zM883 114q0 -56 -38.5 -87.5t-99.5 -31.5t-99.5 31.5t-38.5 87.5q0 29 15.5 54t47.5 37
q-54 24 -54 83q0 48 35 76.5t94 28.5q57 0 92.5 -28.5t35.5 -76.5q0 -59 -53 -83q32 -12 47.5 -37t15.5 -54zM674 286q0 -23 18 -39.5t53 -16.5t53 16.5t18 39.5q0 24 -19.5 38.5t-51.5 14.5t-51.5 -14.5t-19.5 -38.5zM666 115q0 -27 20.5 -45t58.5 -18t58.5 18t20.5 45
q0 26 -20.5 42t-58.5 16t-58.5 -16t-20.5 -42z" />
    <glyph glyph-name="seveneighths" unicode="&#x215e;" horiz-adv-x="831" 
d="M84 327q-6 0 -8 4t0 9l151 318h-179q-11 0 -11 11v35q0 11 11 11h240q11 0 11 -11v-24q0 -7 -3 -14l-158 -331q-3 -8 -13 -8h-41zM139 7q-4 -7 -14 -7h-41q-7 0 -9 4.5t1 9.5l529 694q4 7 14 7h41q7 0 9 -4.5t-2 -9.5zM791 114q0 -56 -38.5 -87.5t-99.5 -31.5t-99.5 31.5
t-38.5 87.5q0 29 15.5 54t47.5 37q-54 24 -54 83q0 48 35 76.5t94 28.5q57 0 92.5 -28.5t35.5 -76.5q0 -59 -53 -83q32 -12 47.5 -37t15.5 -54zM582 286q0 -23 18 -39.5t53 -16.5t53 16.5t18 39.5q0 24 -19.5 38.5t-51.5 14.5t-51.5 -14.5t-19.5 -38.5zM574 115
q0 -27 20.5 -45t58.5 -18t58.5 18t20.5 45q0 26 -20.5 42t-58.5 16t-58.5 -16t-20.5 -42z" />
    <glyph glyph-name="asterisk" unicode="*" horiz-adv-x="457" 
d="M99 395q-10 7 -3 15l72 100l-116 38q-12 3 -8 14l15 49q5 12 14 8l118 -38v123q0 11 12 11h50q12 0 12 -11v-124l117 38q9 5 14 -7l16 -48q3 -11 -7 -14l-118 -38l72 -100q7 -7 -2 -15l-41 -31q-7 -7 -15 2l-73 100l-72 -99q-6 -8 -16 -3z" />
    <glyph glyph-name="backslash" unicode="\" horiz-adv-x="420" 
d="M26 702q-2 5 0 9t8 4h60q9 0 13 -9l287 -693q2 -5 -0.5 -9t-8.5 -4h-61q-10 0 -13 9z" />
    <glyph glyph-name="periodcentered" unicode="&#xb7;" horiz-adv-x="236" 
d="M173 309q0 -24 -15.5 -39.5t-39.5 -15.5q-25 0 -40 15.5t-15 39.5q0 25 15 40.5t40 15.5q24 0 39.5 -15.5t15.5 -40.5z" />
    <glyph glyph-name="bullet" unicode="&#x2022;" horiz-adv-x="360" 
d="M180 227q-42 0 -69.5 27t-27.5 71q0 43 27.5 70t69.5 27t69.5 -27t27.5 -70q0 -44 -27.5 -71t-69.5 -27z" />
    <glyph glyph-name="colon" unicode=":" horiz-adv-x="244" 
d="M177 466q0 -26 -15 -41t-40 -15t-40 15t-15 41q0 25 15 40t40 15t40 -15t15 -40zM177 50q0 -25 -15 -40t-40 -15t-40 15t-15 40q0 26 15 41t40 15t40 -15t15 -41z" />
    <glyph glyph-name="comma" unicode="," horiz-adv-x="215" 
d="M92 -108q-2 -9 -13 -9h-49q-12 0 -10 13l53 198q2 10 12 10h63q14 0 10 -13z" />
    <glyph glyph-name="ellipsis" unicode="&#x2026;" horiz-adv-x="601" 
d="M161 50q0 -24 -15.5 -39.5t-39.5 -15.5q-25 0 -40 15.5t-15 39.5q0 25 15 40.5t40 15.5q24 0 39.5 -15.5t15.5 -40.5zM356 50q0 -24 -15.5 -39.5t-39.5 -15.5q-25 0 -40 15.5t-15 39.5q0 25 15 40.5t40 15.5q24 0 39.5 -15.5t15.5 -40.5zM551 50q0 -24 -15.5 -39.5
t-40.5 -15.5t-40 15.5t-15 39.5q0 25 15 40.5t40 15.5t40.5 -15.5t15.5 -40.5z" />
    <glyph glyph-name="exclam" unicode="!" horiz-adv-x="248" 
d="M98 176q-12 0 -12 11l-6 342v175q0 11 12 11h65q11 0 11 -11v-175l-6 -342q0 -11 -11 -11h-53zM182 50q0 -25 -16.5 -41.5t-41.5 -16.5t-41 16.5t-16 41.5t16 41.5t41 16.5t41.5 -16.5t16.5 -41.5z" />
    <glyph glyph-name="exclamdown" unicode="&#xa1;" horiz-adv-x="238" 
d="M145 345q12 0 12 -11l6 -342v-175q0 -11 -12 -11h-65q-11 0 -11 11v175l6 342q0 11 11 11h53zM61 471q0 25 16.5 41.5t41.5 16.5t41 -16.5t16 -41.5t-16 -41.5t-41 -16.5t-41.5 16.5t-16.5 41.5z" />
    <glyph glyph-name="numbersign" unicode="#" horiz-adv-x="727" 
d="M125 0q-6 0 -8.5 4t-0.5 9l55 194h-133q-14 0 -9 13l12 42q3 10 12 10h136l46 169h-133q-12 0 -9 13l12 42q3 10 13 10h135l57 199q3 10 12 10h50q14 0 10 -13l-56 -196h158l57 199q3 10 12 10h50q14 0 10 -13l-56 -196h131q12 0 9 -14l-12 -41q-3 -10 -12 -10h-134
l-47 -169h131q14 0 9 -14l-12 -41q-3 -10 -12 -10h-134l-57 -197q-1 -10 -12 -10h-50q-13 0 -9 13l56 194h-158l-57 -197q-3 -10 -12 -10h-50zM261 272h158l47 169h-158z" />
    <glyph glyph-name="period" unicode="." horiz-adv-x="211" 
d="M161 50q0 -24 -15.5 -39.5t-39.5 -15.5q-25 0 -40 15.5t-15 39.5q0 25 15 40.5t40 15.5q24 0 39.5 -15.5t15.5 -40.5z" />
    <glyph glyph-name="question" unicode="?" horiz-adv-x="475" 
d="M185 176q-11 0 -11 11v59q0 36 13.5 61.5t34 45t44 36.5t44 35.5t34 42.5t13.5 58q0 24 -7.5 47t-23.5 41t-41.5 29t-61.5 11q-48 0 -83 -18t-64 -47q-10 -9 -16 1l-31 44q-6 8 1 15q29 29 79 53.5t116 24.5q45 0 83.5 -13.5t67 -39t45 -63t16.5 -85.5q0 -43 -13.5 -73
t-33.5 -51.5t-43.5 -38.5t-43.5 -35t-33.5 -40.5t-13.5 -55.5v-44q0 -11 -12 -11h-59zM271 50q0 -24 -15.5 -39.5t-40.5 -15.5t-40 15.5t-15 39.5q0 25 15 40.5t40 15.5t40.5 -15.5t15.5 -40.5z" />
    </font>
</defs>
</svg>
